[ create a new paste ] login | about

Link: http://codepad.org/Da5tAkca    [ raw code | fork ]

Plain Text, pasted on Nov 23:
No Other Sessions (1)
->
foobar2000 1.4.6 / Dynamic Range Meter 1.1.1
log date: 2019-11-22 22:59:50

--------------------------------------------------------------------------------
Analyzed: Gene Clark / No Other Sessions (1)
--------------------------------------------------------------------------------

DR         Peak         RMS     Duration Track
--------------------------------------------------------------------------------
DR12      -1.41 dB   -14.80 dB      3:53 01-From A Silver Phial (Version 4)
DR12      -1.41 dB   -14.45 dB      6:35 02-Silver Raven (Version 2)
DR11      -1.36 dB   -14.20 dB      5:21 03-Some Misunderstanding (Version 3)
DR11      -1.33 dB   -13.84 dB      4:27 04-Life's Greatest Fool (Version 2)
DR11      -1.36 dB   -13.36 dB      5:03 05-Train Leaves Here This Morning (Version 2)
DR10      -1.97 dB   -13.34 dB      5:45 06-Lady Of The North (Version 2)
DR12      -1.40 dB   -14.00 dB      4:18 07-The True One (Version 2)
DR11      -1.36 dB   -13.81 dB      6:29 08-Strength Of Strings (Version 2)
DR9       -1.34 dB   -12.91 dB      5:41 09-No Other (Version 2)
--------------------------------------------------------------------------------

Number of tracks:  9
Official DR value: DR11

Samplerate:        96000 Hz
Channels:          2
Bits per sample:   24
Bitrate:           2587 kbps
Codec:             FLAC
================================================================================
->
=========================================================================================================================================================
->
No Other Sessions (2)
->
foobar2000 1.4.6 / Dynamic Range Meter 1.1.1
log date: 2019-11-22 23:00:22

--------------------------------------------------------------------------------
Analyzed: Gene Clark / No Other Sessions (2)
--------------------------------------------------------------------------------

DR         Peak         RMS     Duration Track
--------------------------------------------------------------------------------
DR12      -1.39 dB   -14.98 dB      4:09 01-From A Silver Phial (Version 1)
DR11      -1.39 dB   -14.14 dB      4:10 02-Life's Greatest Fool (Version 1)
DR11      -1.46 dB   -14.18 dB      5:15 03-No Other (Version 1)
DR8       -1.46 dB   -12.40 dB      5:53 04-Lady Of The North (Version 1)
DR10      -1.46 dB   -14.42 dB      5:12 05-Some Misunderstanding (Version 1)
DR12      -1.46 dB   -14.40 dB      5:00 06-Silver Raven (Version 1)
DR11      -1.45 dB   -12.86 dB      5:46 07-Train Leaves Here This Morning (Version 1)
DR11      -1.46 dB   -13.04 dB      4:41 08-The True One (Version 1)
DR11      -1.37 dB   -13.85 dB      6:23 09-Strength Of Strings (Version 1)
DR8       -1.42 dB   -11.28 dB      3:09 10-Life's Greatest Fool (Single Version)
DR9       -1.40 dB   -12.76 dB      3:17 11-Silver Raven (Single Edit)
--------------------------------------------------------------------------------

Number of tracks:  11
Official DR value: DR10

Samplerate:        96000 Hz
Channels:          2
Bits per sample:   24
Bitrate:           2649 kbps
Codec:             FLAC
================================================================================
->
=========================================================================================================================================================
->
Original Mix (2019 Stereo Remaster)
->
foobar2000 1.4.6 / Dynamic Range Meter 1.1.1
log date: 2019-11-22 23:00:42

--------------------------------------------------------------------------------
Analyzed: Gene Clark / No Other - Original Mix (2019 Stereo Remaster)
--------------------------------------------------------------------------------

DR         Peak         RMS     Duration Track
--------------------------------------------------------------------------------
DR12      -0.06 dB   -13.42 dB      4:47 01-Life's Greatest Fool
DR11      -0.54 dB   -13.98 dB      4:54 02-Silver Raven
DR10      -0.14 dB   -12.61 dB      5:09 03-No Other
DR9       -0.10 dB   -11.27 dB      6:32 04-Strength Of Strings
DR11      -0.13 dB   -12.37 dB      3:42 05-From A Silver Phial
DR8       -0.10 dB   -11.33 dB      8:11 06-Some Misunderstanding
DR11      -0.15 dB   -12.89 dB      3:59 07-The True One
DR9       -0.14 dB   -11.65 dB      6:05 08-Lady Of The North
--------------------------------------------------------------------------------

Number of tracks:  8
Official DR value: DR10

Samplerate:        96000 Hz
Channels:          2
Bits per sample:   24
Bitrate:           2936 kbps
Codec:             FLAC
================================================================================
->
=========================================================================================================================================================
->
Original Mix (Vinyl Master)
->
foobar2000 1.4.6 / Dynamic Range Meter 1.1.1
log date: 2019-11-22 23:01:12

--------------------------------------------------------------------------------
Analyzed: Gene Clark / No Other - Original Mix (Vinyl Master)
--------------------------------------------------------------------------------

DR         Peak         RMS     Duration Track
--------------------------------------------------------------------------------
DR11      -0.06 dB   -12.98 dB      4:48 01-Life's Greatest Fool
DR11      -0.11 dB   -13.28 dB      4:54 02-Silver Raven
DR9       -0.06 dB   -11.92 dB      5:08 03-No Other
DR8        0.00 dB   -10.57 dB      6:31 04-Strength Of Strings
DR8       -0.01 dB    -9.89 dB      3:42 05-From A Silver Phial
DR9       -0.09 dB   -12.10 dB      8:10 06-Some Misunderstanding
DR11      -0.09 dB   -12.19 dB      3:59 07-The True One
DR10      -0.09 dB   -12.34 dB      6:03 08-Lady Of The North
--------------------------------------------------------------------------------

Number of tracks:  8
Official DR value: DR10

Samplerate:        96000 Hz
Channels:          2
Bits per sample:   24
Bitrate:           2917 kbps
Codec:             FLAC
================================================================================
->
=========================================================================================================================================================
->
Stereo (2019 Remix)
->
foobar2000 1.4.6 / Dynamic Range Meter 1.1.1
log date: 2019-11-22 23:01:41

--------------------------------------------------------------------------------
Analyzed: Gene Clark / No Other - Stereo (2019 Remix)
--------------------------------------------------------------------------------

DR         Peak         RMS     Duration Track
--------------------------------------------------------------------------------
DR10      -1.32 dB   -12.62 dB      4:48 01-Life's Greatest Fool
DR9       -1.52 dB   -13.25 dB      4:54 02-Silver Raven
DR10      -0.88 dB   -13.18 dB      5:20 03-No Other
DR10      -1.90 dB   -15.19 dB      6:39 04-Strength Of Strings
DR9       -1.18 dB   -12.26 dB      3:45 05-From A Silver Phial
DR10      -1.26 dB   -14.71 dB      8:16 06-Some Misunderstanding
DR10      -2.27 dB   -15.00 dB      4:29 07-The True One
DR10      -2.32 dB   -14.82 dB      6:13 08-Lady Of The North
--------------------------------------------------------------------------------

Number of tracks:  8
Official DR value: DR10

Samplerate:        96000 Hz
Channels:          2
Bits per sample:   24
Bitrate:           2623 kbps
Codec:             FLAC
================================================================================
->
=========================================================================================================================================================
->
Surround (2019 Remix)
->
foobar2000 1.4.6 / Dynamic Range Meter 1.1.1
log date: 2019-11-22 23:03:03

--------------------------------------------------------------------------------
Analyzed: Gene Clark / No Other - Surround (2019 Remix)
--------------------------------------------------------------------------------

DR         Peak         RMS     Duration Track
--------------------------------------------------------------------------------
DR10      -1.67 dB   -16.87 dB      4:47 01-Life's Greatest Fool
DR11      -1.88 dB   -18.70 dB      4:54 02-Silver Raven
DR11      -0.92 dB   -16.38 dB      5:20 03-No Other
DR11      -1.95 dB   -19.11 dB      6:39 04-Strength Of Strings
DR11      -2.55 dB   -18.08 dB      3:45 05-From A Silver Phial
DR11      -1.74 dB   -18.23 dB      8:16 06-Some Misunderstanding
DR11      -1.86 dB   -18.78 dB      4:29 07-The True One
DR10      -1.68 dB   -17.25 dB      6:13 08-Lady Of The North
--------------------------------------------------------------------------------

Number of tracks:  8
Official DR value: DR11

Samplerate:        96000 Hz
Channels:          6
Bits per sample:   24
Bitrate:           6593 kbps
Codec:             FLAC
================================================================================






Create a new paste based on this one


Comments: