[ create a new paste ] login | about

Link: http://codepad.org/DavN8olc    [ raw code | fork ]

Plain Text, pasted on Mar 13:
Album & Associated Recordings (Original 1969 Mixes)
->
foobar2000 1.5 / Dynamic Range Meter 1.1.1
log date: 2020-03-13 23:44:51

--------------------------------------------------------------------------------
Analyzed: Jethro Tull / Stand Up (The Elevated Edition): Album & Associated Recordings (Original 1969 Mixes)
--------------------------------------------------------------------------------

DR         Peak         RMS     Duration Track
--------------------------------------------------------------------------------
DR10       0.00 dB   -12.47 dB      4:12 01-A New Day Yesterday
DR11      -0.90 dB   -15.22 dB      2:12 02-Jeffrey Goes To Leicester Square
DR12      -3.96 dB   -19.25 dB      3:47 03-Bourée
DR11      -1.65 dB   -16.80 dB      3:53 04-Back To The Family
DR11      -3.72 dB   -19.94 dB      4:23 05-Look Into The Sun
DR11      -2.37 dB   -18.06 dB      4:27 06-Nothing Is Easy
DR12      -2.44 dB   -20.22 dB      2:52 07-Fat Man
DR11      -2.66 dB   -18.63 dB      4:04 08-We Used To Know
DR10      -6.62 dB   -20.55 dB      4:07 09-Reasons For Waiting
DR10      -1.86 dB   -16.96 dB      4:17 10-For A Thousand Mothers
DR11      -1.70 dB   -15.36 dB      3:26 11-Living In The Past (Mono)
DR9       -2.79 dB   -13.07 dB      2:51 12-Driving Song (Mono)
DR11      -0.21 dB   -14.25 dB      3:29 13-Living In The Past (Stereo)
DR9       -0.01 dB   -11.81 dB      2:47 14-Driving Song (Stereo)
--------------------------------------------------------------------------------

Number of tracks:  14
Official DR value: DR11

Samplerate:        96000 Hz
Channels:          2
Bits per sample:   24
Bitrate:           3079 kbps
Codec:             FLAC
================================================================================
->
=========================================================================================================================================================
->
Album & Associated Recordings (Steven Wilson Remixes)
->
foobar2000 1.5 / Dynamic Range Meter 1.1.1
log date: 2020-03-13 23:44:38

--------------------------------------------------------------------------------
Analyzed: Jethro Tull / Stand Up (The Elevated Edition): Album & Associated Recordings (Steven Wilson Remixes 5.1 Surround Sound)
--------------------------------------------------------------------------------

DR         Peak         RMS     Duration Track
--------------------------------------------------------------------------------
DR11      -0.10 dB   -16.97 dB      4:11 01-A New Day Yesterday
DR10      -7.28 dB   -22.69 dB      2:13 02-Jeffrey Goes To Leicester Square
DR12      -0.09 dB   -18.97 dB      3:48 03-Bourée
DR11      -0.09 dB   -18.15 dB      3:54 04-Back To The Family
DR11      -5.46 dB   -24.38 dB      4:37 05-Look Into The Sun
DR12      -0.09 dB   -17.94 dB      4:27 06-Nothing Is Easy
DR13      -2.08 dB   -22.93 dB      2:52 07-Fat Man
DR12      -1.40 dB   -21.05 dB      4:03 08-We Used To Know
DR9       -6.95 dB   -23.58 dB      4:07 09-Reasons For Waiting
DR12      -1.25 dB   -18.56 dB      4:18 10-For A Thousand Mothers
DR12      -0.09 dB   -18.27 dB      3:25 11-Living In The Past
DR12      -0.08 dB   -16.96 dB      2:50 12-Driving Song
DR11      -0.08 dB   -20.22 dB      4:18 13-Bourée (Morgan Version)
--------------------------------------------------------------------------------

Number of tracks:  13
Official DR value: DR11

Samplerate:        96000 Hz
Channels:          6
Bits per sample:   24
Bitrate:           6525 kbps
Codec:             FLAC
================================================================================


foobar2000 1.5 / Dynamic Range Meter 1.1.1
log date: 2020-03-13 23:45:02

--------------------------------------------------------------------------------
Analyzed: Jethro Tull / Stand Up (The Elevated Edition): Stand Up (The Elevated Edition): Album & Associated Recordings (Steven Wilson Remixes Stereo)
--------------------------------------------------------------------------------

DR         Peak         RMS     Duration Track
--------------------------------------------------------------------------------
DR10      -0.10 dB   -11.48 dB      4:11 01-A New Day Yesterday
DR12      -2.95 dB   -17.47 dB      2:13 02-Jeffrey Goes To Leicester Square
DR11      -0.10 dB   -13.76 dB      3:48 03-Bourée
DR10      -0.10 dB   -12.98 dB      3:54 04-Back To The Family
DR12      -1.57 dB   -18.84 dB      4:37 05-Look Into The Sun
DR10      -0.10 dB   -12.60 dB      4:27 06-Nothing Is Easy
DR14      -0.10 dB   -17.19 dB      2:52 07-Fat Man
DR12      -0.10 dB   -15.34 dB      4:03 08-We Used To Know
DR11      -3.05 dB   -17.97 dB      4:07 09-Reasons For Waiting
DR11      -0.10 dB   -13.11 dB      4:18 10-For A Thousand Mothers
DR10      -0.10 dB   -12.68 dB      3:25 11-Living In The Past
DR12      -0.10 dB   -13.29 dB      2:50 12-Driving Song
DR12      -0.10 dB   -15.33 dB      4:18 13-Bourée (Morgan Version)
--------------------------------------------------------------------------------

Number of tracks:  13
Official DR value: DR11

Samplerate:        96000 Hz
Channels:          2
Bits per sample:   24
Bitrate:           2715 kbps
Codec:             FLAC
================================================================================




Create a new paste based on this one


Comments: