[ create a new paste ] login | about

Link: http://codepad.org/DdSwU099    [ raw code | fork ]

Plain Text, pasted on Jul 12:
foobar2000 1.3.17 / Dynamic Range Meter 1.1.1
log date: 2018-07-11 11:35:18

--------------------------------------------------------------------------------
Analyzed: ? / ?
--------------------------------------------------------------------------------

DR         Peak         RMS     Duration Track
--------------------------------------------------------------------------------
DR15      -5.86 dB   -29.07 dB      3:17 01-Black Coffee
DR12      -5.30 dB   -23.25 dB      3:03 02-Just Friends
DR13      -5.08 dB   -24.22 dB      2:21 03-Lonely Girl
DR13      -5.37 dB   -23.82 dB      3:13 04-You´re Mine, You
DR11      -5.54 dB   -22.78 dB      3:23 05-The Nearness Of You
DR13      -5.82 dB   -24.97 dB      3:02 06-I´m Crazy To Love You
DR12      -5.58 dB   -23.34 dB      2:56 07-Don´t Be Afraid
DR11      -5.50 dB   -22.13 dB      3:05 08-Thinking Of You
DR13      -5.72 dB   -24.82 dB      3:12 09-Deep Purple
DR13      -5.58 dB   -26.45 dB      2:36 10-My Reverie
DR13      -5.60 dB   -24.15 dB      2:53 11-After Hours
DR11      -5.44 dB   -19.97 dB      2:59 12-Time To Go
DR12      -5.46 dB   -21.45 dB      2:59 13-Corner To Corner
DR11      -5.71 dB   -21.45 dB      3:06 14-Street Of Dreams
DR11      -5.37 dB   -21.50 dB      2:51 15-Mighty Lonesome Feelin´
DR11      -5.30 dB   -20.81 dB      3:00 16-Sinner Or Saint
DR12      -5.35 dB   -23.25 dB      3:20 17-I´ll Know
DR11      -5.28 dB   -22.08 dB      3:00 18-These Things I Offer You  
DR13      -5.51 dB   -25.07 dB      2:23 19-I Confess 
DR14      -5.74 dB   -25.92 dB      2:38 20-A Blues Serenade
--------------------------------------------------------------------------------

Number of tracks:  20
Official DR value: DR12

Samplerate:        2822400 Hz / PCM Samplerate: 176400 Hz
Channels:          6
Bits per sample:   1
Bitrate:           16934 kbps
Codec:             DST64
================================================================================

--------------------------------------------------------------------------------
Analyzed: ? / ?
--------------------------------------------------------------------------------

DR         Peak         RMS     Duration Track
--------------------------------------------------------------------------------
DR16      -5.70 dB   -26.13 dB      3:17 01-Black Coffee
DR11      -5.28 dB   -19.51 dB      3:03 02-Just Friends
DR12      -5.70 dB   -21.01 dB      2:21 03-Lonely Girl
DR12      -5.14 dB   -21.08 dB      3:13 04-You´re Mine, You
DR10      -5.31 dB   -19.03 dB      3:23 05-The Nearness Of You
DR13      -5.75 dB   -21.99 dB      3:02 06-I´m Crazy To Love You
DR11      -5.69 dB   -20.06 dB      2:56 07-Don´t Be Afraid
DR10      -5.33 dB   -18.74 dB      3:05 08-Thinking Of You
DR12      -5.64 dB   -20.98 dB      3:12 09-Deep Purple
DR13      -5.72 dB   -23.86 dB      2:36 10-My Reverie
DR13      -5.62 dB   -21.24 dB      2:53 11-After Hours
DR9       -5.43 dB   -16.66 dB      2:59 12-Time To Go
DR10      -5.52 dB   -18.30 dB      2:59 13-Corner To Corner
DR10      -5.56 dB   -18.51 dB      3:06 14-Street Of Dreams
DR11      -5.62 dB   -17.95 dB      2:51 15-Mighty Lonesome Feelin´
DR9       -5.58 dB   -17.64 dB      3:00 16-Sinner Or Saint
DR11      -5.49 dB   -19.39 dB      3:20 17-I´ll Know
DR10      -5.64 dB   -18.63 dB      3:00 18-These Things I Offer You  
DR13      -5.64 dB   -21.43 dB      2:23 19-I Confess 
DR14      -5.84 dB   -22.98 dB      2:38 20-A Blues Serenade
--------------------------------------------------------------------------------

Number of tracks:  20
Official DR value: DR11

Samplerate:        2822400 Hz / PCM Samplerate: 176400 Hz
Channels:          2
Bits per sample:   1
Bitrate:           5645 kbps
Codec:             DST64
================================================================================




Create a new paste based on this one


Comments: