[ create a new paste ] login | about

Link: http://codepad.org/DeqfSCKk    [ raw code | fork ]

Plain Text, pasted on May 28:
foobar2000 1.3.17 / Dynamic Range Meter 1.1.1
log date: 2018-05-28 12:19:12

--------------------------------------------------------------------------------
Analyzed: Lou Reed & Kris Kristofferson / The Bottom Line Archive Series: In Their Own Words with Vin Scelsa
--------------------------------------------------------------------------------

DR         Peak         RMS     Duration Track
--------------------------------------------------------------------------------
DR8       -1.90 dB   -13.43 dB      1:25 01-Introduction (Vin Scelsa)
DR9       -1.70 dB   -14.33 dB      1:59 02-Vin Scelsa Introduces Lou Reed (Vin Scelsa)
DR11      -0.80 dB   -15.68 dB      2:54 03-Betrayed (Lou Reed)
DR8       -2.40 dB   -14.68 dB      1:11 04-VS Introduces Kris Kristofferson (Vin Scelsa)
DR10      -1.10 dB   -15.57 dB      4:06 05-Shipwrecked (Kris Kristofferson)
DR11      -2.70 dB   -17.69 dB      3:43 06-LR on Songwriting (Lou Reed)
DR10      -1.10 dB   -14.17 dB      2:29 07-Legendary Hearts (Lou Reed)
DR12      -2.60 dB   -18.84 dB      4:27 08-KK on His Childhood & Songwriting (Kris Kristofferson)
DR13      -1.10 dB   -18.02 dB      5:56 09-Sunday Morning Coming Down / The Pilgrim (Kris Kristofferson)
DR13      -2.10 dB   -19.02 dB      2:21 10-LR on New York (Lou Reed)
DR7       -2.39 dB   -11.86 dB      4:29 11-Strawman (Lou Reed)
DR11      -2.40 dB   -17.58 dB      0:49 12-KK talks about “Strawman” (Kris Kristofferson)
DR10      -1.10 dB   -15.04 dB      1:48 13-Sam's Song (Kris Kristofferson)
DR14      -2.21 dB   -20.40 dB      2:23 14-LR on Writing for Wim Wenders (Lou Reed)
DR8       -1.10 dB   -11.82 dB      3:02 15-Why Can't I Be Good (Lou Reed)
DR13      -2.80 dB   -19.11 dB      1:43 16-LR on Autobiographical Songs (Lou Reed)
--------------------------------------------------------------------------------

Number of tracks:  16
Official DR value: DR10

Samplerate:        44100 Hz
Channels:          2
Bits per sample:   24
Bitrate:           1426 kbps
Codec:             FLAC
================================================================================

foobar2000 1.3.17 / Dynamic Range Meter 1.1.1
log date: 2018-05-28 12:19:45

--------------------------------------------------------------------------------
Analyzed: Lou Reed & Kris Kristofferson / The Bottom Line Archive Series: In Their Own Words with Vin Scelsa
--------------------------------------------------------------------------------

DR         Peak         RMS     Duration Track
--------------------------------------------------------------------------------
DR13      -2.20 dB   -19.07 dB      4:02 17-KK on Nashville (Kris Kristofferson)
DR10      -0.80 dB   -15.62 dB      1:55 18-Help Me Make It Through The Night (Kris Kristofferson)
DR15      -1.83 dB   -21.32 dB      5:32 19-LR on Velvet Underground & Warhol (Lou Reed)
DR11      -0.80 dB   -15.55 dB      5:37 20-Sweet Jane (Lou Reed)
DR13      -2.39 dB   -19.80 dB      2:29 21-KK on Writing (Kris Kristofferson)
DR11      -0.80 dB   -16.58 dB      4:37 22-To Beat the Devil (Kris Kristofferson)
DR11      -2.70 dB   -18.20 dB      4:10 23-LR on Writing Prose (Lou Reed)
DR8       -1.05 dB   -12.20 dB      3:28 24-Romeo Had Juliet (Lou Reed)
DR12      -1.61 dB   -17.09 dB      3:56 25-Burden of Freedom (Lou Reed)
DR13      -2.10 dB   -19.91 dB      3:15 26-KK on “Me and Bobby McGee” (Kris Kristofferson)
DR10      -1.51 dB   -14.79 dB      4:22 27-Me and Bobby McGee (Kris Kristofferson)
DR12      -2.50 dB   -17.07 dB      0:54 28-KK on “Bird On A Wire” (Kris Kristofferson)
DR11      -1.10 dB   -16.09 dB      3:24 29-Bird On A Wire (Kris Kristofferson)
DR8       -0.88 dB   -13.21 dB      3:07 30-Tracks of My Tears (Kris Kristofferson)
--------------------------------------------------------------------------------

Number of tracks:  14
Official DR value: DR11

Samplerate:        44100 Hz
Channels:          2
Bits per sample:   24
Bitrate:           1502 kbps
Codec:             FLAC
================================================================================




Create a new paste based on this one


Comments: