[ create a new paste ] login | about

Link: http://codepad.org/DfE7gC8g    [ raw code | fork ]

Plain Text, pasted on Oct 12:
foobar2000 1.3.17 / Dynamic Range Meter 1.1.1
log date: 2018-10-12 09:47:08

--------------------------------------------------------------------------------
Analyzed: Eric Bibb / A Selection of Analogue Bibb
--------------------------------------------------------------------------------

DR         Peak         RMS     Duration Track
--------------------------------------------------------------------------------
DR12      -6.56 dB   -21.07 dB      3:52 ?- Lonesome valley
DR13      -7.84 dB   -24.22 dB      2:17 ?-Blacksmith island
DR14      -6.02 dB   -22.93 dB      6:53 ?-Don´t ever let nobody run your spirit down
DR17      -7.43 dB   -30.14 dB      4:43 ?-Going home
DR14      -7.36 dB   -23.17 dB      3:19 ?-Good Stuff
DR13      -7.20 dB   -25.14 dB      2:39 ?-Home in that rock
DR14      -7.10 dB   -23.81 dB      2:47 ?-I wanna bee ready
DR15      -7.60 dB   -28.03 dB      4:12 ?-I want Jesus to walk with me
DR16      -5.26 dB   -26.24 dB      4:44 ?-In my fathers house
DR17      -6.71 dB   -28.63 dB      2:51 ?-Look over yonder
DR13      -5.50 dB   -21.82 dB      4:05 ?-Meetin´ at the building
DR16      -6.98 dB   -26.13 dB      5:13 ?-Needed time
DR13      -6.22 dB   -21.68 dB      4:31 ?-Nothin´ like you used to do
DR12      -8.51 dB   -24.12 dB      3:33 ?-Shingle By Shingle
DR14      -9.13 dB   -25.83 dB      5:28 ?-Tell ol´Bill
DR15      -6.71 dB   -26.52 dB      5:10 ?-That´s why I am here
DR14      -7.21 dB   -24.96 dB      4:28 ?-Where thee green grass grows
DR14      -6.65 dB   -22.69 dB      3:59 ?-Wrapped up in her arms
--------------------------------------------------------------------------------

Number of tracks:  18
Official DR value: DR14

Samplerate:        5644800 Hz / PCM Samplerate: 352800 Hz
Channels:          2
Bits per sample:   1
Bitrate:           11290 kbps
Codec:             DSD128
================================================================================




Create a new paste based on this one


Comments: