[ create a new paste ] login | about

Link: http://codepad.org/DfdVu6Oa    [ raw code | fork ]

Plain Text, pasted on Nov 20:
[CUETools log; Date: 11/19/2018 1:59:40 PM; Version: 2.1.5]
[CTDB TOCID: kiMmWzRSVvs3e72rjYfEiIKT1sg-] found.
Track | CTDB Status
  1   | (20/20) Accurately ripped
  2   | (20/20) Accurately ripped
  3   | (20/20) Accurately ripped
  4   | (20/20) Accurately ripped
  5   | (20/20) Accurately ripped
  6   | (20/20) Accurately ripped
  7   | (20/20) Accurately ripped
  8   | (20/20) Accurately ripped
  9   | (20/20) Accurately ripped
 10   | (20/20) Accurately ripped
 11   | (20/20) Accurately ripped
 12   | (20/20) Accurately ripped
 13   | (20/20) Accurately ripped
 14   | (20/20) Accurately ripped
 15   | (20/20) Accurately ripped
 16   | (20/20) Accurately ripped
 17   | (20/20) Accurately ripped
 18   | (20/20) Accurately ripped
 19   | (20/20) Accurately ripped
 20   | (20/20) Accurately ripped
 21   | (20/20) Accurately ripped
 22   | (20/20) Accurately ripped
[AccurateRip ID: 003990d5-037ca5d9-590fbd16] found.
Track   [  CRC   |   V2   ] Status
 01     [f5f14e4e|0ead70ba] (0+3/3) Accurately ripped
 02     [a9b73cad|e10af8c0] (0+3/3) Accurately ripped
 03     [c8c8780c|b328c0f8] (0+3/3) Accurately ripped
 04     [0750e62f|af34b97b] (0+3/3) Accurately ripped
 05     [0c703df6|232d717e] (0+3/3) Accurately ripped
 06     [ea3372fe|2059f636] (0+3/3) Accurately ripped
 07     [c441a944|0ab95e24] (0+3/3) Accurately ripped
 08     [dc8d2896|b85ec1fd] (0+3/3) Accurately ripped
 09     [cfde654d|c1e32969] (0+3/3) Accurately ripped
 10     [ebb760d9|a6eedd17] (0+3/3) Accurately ripped
 11     [52898452|48d30e71] (0+3/3) Accurately ripped
 12     [b63735a2|1e58adbc] (0+3/3) Accurately ripped
 13     [9f1a1fad|997acc53] (0+3/3) Accurately ripped
 14     [e08b76f1|ccfdc6bd] (0+3/3) Accurately ripped
 15     [f185f1b2|448dc8f1] (0+3/3) Accurately ripped
 16     [c7aba0fc|bc04bf9f] (0+3/3) Accurately ripped
 17     [7e0c3c29|4c3fa2ac] (0+3/3) Accurately ripped
 18     [002623cd|5fd39597] (0+3/3) Accurately ripped
 19     [34eb78da|31ca0122] (0+3/3) Accurately ripped
 20     [ae43d6d4|a293ca61] (0+3/3) Accurately ripped
 21     [ee490353|e5c58f23] (0+3/3) Accurately ripped
 22     [37ee2652|bce8378f] (0+3/3) Accurately ripped

Track Peak [ CRC32  ] [W/O NULL] [  LOG   ]
 --   98.8 [0078F9D3] [A80F114F]   CRC32   
 01   98.8 [6C0DB061] [EAF7DAAB]           
 02   78.8 [CBD5FEF9] [FF9657A4]           
 03   88.3 [2822B5C0] [02EA8C5E]           
 04   94.7 [0EC0E16A] [DCEBAF2E]           
 05   98.2 [84C09CD4] [3DEBC3F8]           
 06   81.4 [E96414C8] [25A8952C]           
 07   88.6 [C28E3E8F] [8C36FF3A]           
 08   82.8 [A8BB7B30] [2CCD0E34]           
 09   79.6 [A536BB3C] [D6F1C86E]           
 10   65.9 [F7F423A0] [E736E0F9]           
 11   76.3 [288BCB54] [C616DC91]           
 12   91.3 [D6505782] [1F580ECF]           
 13   87.4 [80CDCAED] [42758693]           
 14   90.0 [5AFE5A6F] [607CC760]           
 15   82.7 [870CD28D] [1D49CCC3]           
 16   77.0 [CAEA9B38] [15B8E937]           
 17   90.1 [7997F86A] [5C7363F3]           
 18   89.3 [8E3BD712] [619C01B6]           
 19   85.8 [F6074B0F] [9242207A]           
 20   87.9 [9079BACC] [19A7EE81]           
 21   88.3 [21626724] [37DAC6D2]           
 22   88.1 [B07DCC4B] [90BA8EF8]           



Create a new paste based on this one


Comments: