[ create a new paste ] login | about

Link: http://codepad.org/DjdwrCSj    [ raw code | fork ]

Plain Text, pasted on Apr 12:
Exact Audio Copy V0.99 prebeta 4 from 23. January 2008

Отчёт EAC об извлечении, выполненном 4. марта 2009, 19:26

Brenda Lee / Little Miss Dynamite CD 4

Дисковод: Optiarc DVD RW AD-7203A   Adapter: 3  ID: 0

Режим чтения                 : Достоверность
Использование точного потока : Да
Отключение кэша аудио        : Да
Использование указателей C2  : Нет

Коррекция смещения при чтении                     : 48
Способность читать области Lead-in и Lead-out     : Нет
Заполнение пропущенных сэмплов тишиной            : Да
Удаление блоков с тишиной в начале и конце        : Нет
При вычислениях CRC использовались нулевые сэмплы : Да
Интерфейс                                         : Установленный внешний ASPI-интерфейс

Выходной формат : Внутренние WAV-операции
Формат сэмплов  : 44.100 Гц; 16 бит; стерео


TOC извлечённого CD

     Трек |   Старт  | Длительность | Начальный сектор | Конечный сектор 
    ---------------------------------------------------------------------
       1  |  0:00.00 |    2:13.12   |           0      |       9986      
       2  |  2:13.12 |    2:19.73   |        9987      |      20484      
       3  |  4:33.10 |    3:02.25   |       20485      |      34159      
       4  |  7:35.35 |    2:25.62   |       34160      |      45096      
       5  | 10:01.22 |    2:15.13   |       45097      |      55234      
       6  | 12:16.35 |    2:17.42   |       55235      |      65551      
       7  | 14:34.02 |    2:22.38   |       65552      |      76239      
       8  | 16:56.40 |    2:12.25   |       76240      |      86164      
       9  | 19:08.65 |    2:33.17   |       86165      |      97656      
      10  | 21:42.07 |    2:39.28   |       97657      |     109609      
      11  | 24:21.35 |    2:27.45   |      109610      |     120679      
      12  | 26:49.05 |    2:27.35   |      120680      |     131739      
      13  | 29:16.40 |    2:07.02   |      131740      |     141266      
      14  | 31:23.42 |    2:57.45   |      141267      |     154586      
      15  | 34:21.12 |    2:42.53   |      154587      |     166789      
      16  | 37:03.65 |    3:20.52   |      166790      |     181841      
      17  | 40:24.42 |    2:46.70   |      181842      |     194361      
      18  | 43:11.37 |    2:54.38   |      194362      |     207449      
      19  | 46:06.00 |    2:38.52   |      207450      |     219351      
      20  | 48:44.52 |    2:20.10   |      219352      |     229861      
      21  | 51:04.62 |    2:54.40   |      229862      |     242951      
      22  | 53:59.27 |    2:37.05   |      242952      |     254731      
      23  | 56:36.32 |    2:33.20   |      254732      |     266226      
      24  | 59:09.52 |    2:25.43   |      266227      |     277144      
      25  | 61:35.20 |    2:09.22   |      277145      |     286841      
      26  | 63:44.42 |    2:31.50   |      286842      |     298216      
      27  | 66:16.17 |    2:29.40   |      298217      |     309431      
      28  | 68:45.57 |    2:31.13   |      309432      |     320769      
      29  | 71:16.70 |    2:15.27   |      320770      |     330921      
      30  | 73:32.22 |    2:45.10   |      330922      |     343306      
      31  | 76:17.32 |    2:19.00   |      343307      |     353731      


Характеристики диапазона извлечения и сообщения об ошибках

Выбранный диапазон

     Имя файла D:\Раздачи\Brenda Lee\CD 4\Brenda Lee - Little Miss Dynamite CD 4.wav

     Пиковый уровень 98.0 %
     Качество диапазона 100.0 %
     CRC копии EEED1EED
     Копирование... OK

Ошибок не произошло

 
AccurateRip: сводка
 
Трек  1  нет в базе данных
Трек  2  нет в базе данных
Трек  3  нет в базе данных
Трек  4  нет в базе данных
Трек  5  нет в базе данных
Трек  6  нет в базе данных
Трек  7  нет в базе данных
Трек  8  нет в базе данных
Трек  9  нет в базе данных
Трек 10  нет в базе данных
Трек 11  нет в базе данных
Трек 12  нет в базе данных
Трек 13  нет в базе данных
Трек 14  нет в базе данных
Трек 15  нет в базе данных
Трек 16  нет в базе данных
Трек 17  нет в базе данных
Трек 18  нет в базе данных
Трек 19  нет в базе данных
Трек 20  нет в базе данных
Трек 21  нет в базе данных
Трек 22  нет в базе данных
Трек 23  нет в базе данных
Трек 24  нет в базе данных
Трек 25  нет в базе данных
Трек 26  нет в базе данных
Трек 27  нет в базе данных
Трек 28  нет в базе данных
Трек 29  нет в базе данных
Трек 30  нет в базе данных
Трек 31  нет в базе данных
 
Ни одного трека нет в базе AccurateRip

Конец отчёта



Create a new paste based on this one


Comments: