[ create a new paste ] login | about

Link: http://codepad.org/DkitD8oS    [ raw code | fork ]

Plain Text, pasted on Oct 1:
CD1:

[CUETools log; Date: 10/23/2016 12:13:21 PM; Version: 2.1.5]
[CTDB TOCID: G.H7N6D9hbY581ICVbL0uoKiQEE-] found.
Track | CTDB Status
  1   | (55/55) Accurately ripped
  2   | (55/55) Accurately ripped
  3   | (53/55) Accurately ripped
[AccurateRip ID: 000848b8-001b8b3a-130df203] found.
Track   [  CRC   |   V2   ] Status
 01     [e93b1f67|8b71bb59] (0+1/1) Accurately ripped
 02     [52fb5e1f|9fe63b89] (0+1/1) Accurately ripped
 03     [40dc2796|b5f1a70f] (0+1/1) Accurately ripped

Track Peak [ CRC32  ] [W/O NULL] [  LOG   ]
 --   74.6 [92E442EC] [DE9A2E2D]   CRC32   
 01   74.5 [34638189] [ED3EBB09]           
 02   74.6 [DC9ED025] [8CE9F8B6]           
 03   74.4 [72F48863] [CBEFFBE1]           


CD2:

[CUETools log; Date: 10/23/2016 12:14:05 PM; Version: 2.1.5]
[CTDB TOCID: WyjSFX7jZp5Qi8xhIyeeZ37vISw-] found.
Track | CTDB Status
  1   | (43/43) Accurately ripped
  2   | (43/43) Accurately ripped
  3   | (42/43) Accurately ripped
[AccurateRip ID: 00091e09-001e70c6-1c0fa203] found.
Track   [  CRC   |   V2   ] Status
 01     [8db5cdfa|ccb2bfa0] (0+1/1) Accurately ripped
 02     [e03cbb43|933b30f5] (0+1/1) Accurately ripped
 03     [4749600a|24ffefda] (0+1/1) Accurately ripped

Track Peak [ CRC32  ] [W/O NULL] [  LOG   ]
 --   75.5 [4EAEB5F6] [E8572073]   CRC32   
 01   75.5 [23E2D852] [C9FED002]           
 02   74.6 [D3CF5841] [DF9381C5]           
 03   51.0 [D616E4F4] [0A0E589B]           



CD3:

[CUETools log; Date: 10/23/2016 12:15:04 PM; Version: 2.1.5]
[CTDB TOCID: RDqoUpw4lePbsxx3lTMIZBzsNyc-] found.
Track | CTDB Status
  1   | ( 1/38) Accurately ripped, or (22/38) differs in 2 samples @00:13:64
  2   | (37/38) Accurately ripped
  3   | (37/38) Accurately ripped
  4   | (38/38) Accurately ripped
  5   | (38/38) Accurately ripped
  6   | (38/38) Accurately ripped
  7   | (38/38) Accurately ripped
  8   | (36/38) Accurately ripped
[AccurateRip ID: 0020dab8-00ca6e54-70129808] found.
Track   [  CRC   |   V2   ] Status
 01     [becdaa78|9eb99954] (0+0/1) No match
 02     [62a6ae2a|46896d04] (0+1/1) Accurately ripped
 03     [b048e9c0|41efcfac] (0+1/1) Accurately ripped
 04     [63c32aac|d5e424fd] (0+1/1) Accurately ripped
 05     [1133419b|df3697b2] (0+1/1) Accurately ripped
 06     [47bfb254|ca5c645c] (0+1/1) Accurately ripped
 07     [4a5a62c1|a31202f4] (0+1/1) Accurately ripped
 08     [ee72c594|c43d3e0c] (0+1/1) Accurately ripped

Track Peak [ CRC32  ] [W/O NULL] [  LOG   ]
 --   75.3 [773F4F1C] [56352C37]   CRC32   
 01   69.1 [29AECD41] [3B989ABE]           
 02   50.9 [5BA26B13] [97D59121]           
 03   53.2 [98F04DE6] [FE46C73E]           
 04   74.3 [E64AFCFC] [59AF6DE5]           
 05   66.3 [BCB15416] [E3C690F7]           
 06   65.9 [943BE1F3] [96BD1F22]           
 07   74.3 [CE9339C7] [C0C7104E]           
 08   75.3 [3BC982D0] [AC47078F]           




Create a new paste based on this one


Comments: