[ create a new paste ] login | about

Link: http://codepad.org/Dmof5m5G    [ raw code | fork ]

Plain Text, pasted on Dec 30:
foobar2000 1.6 / Dynamic Range Meter 1.1.1
log date: 2020-12-30 19:52:18

--------------------------------------------------------------------------------
Analyzed: Ray Charles/Count Basie Orchestra / Ray Sings Basie Swings
--------------------------------------------------------------------------------

DR         Peak         RMS     Duration Track
--------------------------------------------------------------------------------
DR12      -0.12 dB   -16.98 dB      4:37 01-Oh, What a Beautiful Morning
DR12      -0.01 dB   -14.81 dB      2:58 02-Let the Good Times Roll
DR13      -0.43 dB   -17.46 dB      6:19 03-How Long Has This Been Going On?
DR9       -0.98 dB   -12.39 dB      4:06 04-Every Saturday Night
DR13      -1.01 dB   -15.41 dB      2:35 05-Busted
DR12      -2.17 dB   -18.19 dB      3:53 06-Crying Time
DR12      -0.93 dB   -15.90 dB      4:03 07-I Can't Stop Loving You
DR12      -1.37 dB   -17.99 dB      4:10 08-Come Live With Me
DR10      -2.63 dB   -14.82 dB      4:10 09-Feel So Bad
DR12      -0.57 dB   -15.77 dB      4:04 10-The Long and Winding Road
DR10      -1.96 dB   -14.12 dB      2:51 11-Look What They've Done To My Song
DR13      -0.72 dB   -18.03 dB      4:41 12-Georgia on My Mind
--------------------------------------------------------------------------------

Number of tracks:  12
Official DR value: DR12

Samplerate:        88200 Hz
Channels:          2
Bits per sample:   24
Bitrate:           2499 kbps
Codec:             FLAC
================================================================================




Create a new paste based on this one


Comments: