[ create a new paste ] login | about

Link: http://codepad.org/DoGTow2R    [ raw code | fork ]

Plain Text, pasted on Mar 1:
Exact Audio Copy V1.1 from 23. June 2015

EAC extraction logfile from 7. August 2015, 0:20

Various Artists / Pure... electronic 80s (CD 1)

Used drive  : PIONEER BD-RW   BDR-206   Adapter: 1  ID: 0

Read mode               : Secure
Utilize accurate stream : Yes
Defeat audio cache      : Yes
Make use of C2 pointers : No

Read offset correction                      : 667
Overread into Lead-In and Lead-Out          : No
Fill up missing offset samples with silence : Yes
Delete leading and trailing silent blocks   : No
Null samples used in CRC calculations       : Yes
Used interface                              : Native Win32 interface for Win NT & 2000

Used output format              : User Defined Encoder
Selected bitrate                : 768 kBit/s
Quality                         : High
Add ID3 tag                     : No
Command line compressor         : C:\Program Files (x86)\Exact Audio Copy\Flac\flac.exe
Additional command line options : -8 -V -T "TITLE=%title%" -T "ARTIST=%artist%" -T "ALBUMARTIST=%albumartist%" -T "ALBUM=%albumtitle%" -T "DATE=%year%" -T "TRACKNUMBER=%tracknr%" -T "TRACKTOTAL=%numtracks%" -T "GENRE=%genre%" -T "COMMENT=%comment%" -T "PERFORMER=%albuminterpret%" -T "COMPOSER=%composer%" %source% -o %dest%


TOC of the extracted CD

     Track |   Start  |  Length  | Start sector | End sector 
    ---------------------------------------------------------
        1  |  0:00.00 |  3:33.51 |         0    |    16025   
        2  |  3:33.51 |  3:30.26 |     16026    |    31801   
        3  |  7:04.02 |  4:09.40 |     31802    |    50516   
        4  | 11:13.42 |  3:01.17 |     50517    |    64108   
        5  | 14:14.59 |  3:39.28 |     64109    |    80561   
        6  | 17:54.12 |  5:31.56 |     80562    |   105442   
        7  | 23:25.68 |  3:54.61 |    105443    |   123053   
        8  | 27:20.54 |  3:42.42 |    123054    |   139745   
        9  | 31:03.21 |  3:12.59 |    139746    |   154204   
       10  | 34:16.05 |  3:32.60 |    154205    |   170164   
       11  | 37:48.65 |  3:47.15 |    170165    |   187204   
       12  | 41:36.05 |  4:19.33 |    187205    |   206662   
       13  | 45:55.38 |  4:53.37 |    206663    |   228674   
       14  | 50:49.00 |  4:38.17 |    228675    |   249541   
       15  | 55:27.17 |  4:57.37 |    249542    |   271853   
       16  | 60:24.54 |  3:22.44 |    271854    |   287047   


Range status and errors

Selected range

     Filename D:\Сборники (Flac)\VA - Pure... electronic 80s (2014)4CD[Flac+.cue]\CD1\Various Artists - Pure... electronic 80s (CD 1).wav

     Peak level 99.7 %
     Extraction speed 7.6 X
     Range quality 99.9 %
     Test CRC FC9116F3
     Copy CRC FC9116F3
     Copy OK

No errors occurred

 
AccurateRip summary
 
Track  1  accurately ripped (confidence 4)  [D676C0A7]  (AR v2)
Track  2  accurately ripped (confidence 4)  [6BD6E6B4]  (AR v2)
Track  3  accurately ripped (confidence 4)  [60A0C8BA]  (AR v2)
Track  4  accurately ripped (confidence 4)  [50FED5B7]  (AR v2)
Track  5  accurately ripped (confidence 4)  [941B7660]  (AR v2)
Track  6  accurately ripped (confidence 4)  [0BDC9257]  (AR v2)
Track  7  accurately ripped (confidence 4)  [20A48B5E]  (AR v2)
Track  8  accurately ripped (confidence 4)  [7235E126]  (AR v2)
Track  9  accurately ripped (confidence 4)  [01797F1D]  (AR v2)
Track 10  accurately ripped (confidence 4)  [7EF4011C]  (AR v2)
Track 11  accurately ripped (confidence 4)  [CD091AFE]  (AR v2)
Track 12  accurately ripped (confidence 4)  [93EA0F40]  (AR v2)
Track 13  accurately ripped (confidence 4)  [5D315963]  (AR v2)
Track 14  accurately ripped (confidence 4)  [40F0299C]  (AR v2)
Track 15  accurately ripped (confidence 4)  [6D62709C]  (AR v2)
Track 16  accurately ripped (confidence 4)  [08D9318F]  (AR v2)
 
All tracks accurately ripped

End of status report

---- CUETools DB Plugin V2.1.6

[CTDB TOCID: auf9KSPT1sFgx2b0P8WGRSBwGbU-] found
Submit result: auf9KSPT1sFgx2b0P8WGRSBwGbU- has been confirmed
Track | CTDB Status
  1   | (7/7) Accurately ripped
  2   | (7/7) Accurately ripped
  3   | (7/7) Accurately ripped
  4   | (7/7) Accurately ripped
  5   | (7/7) Accurately ripped
  6   | (7/7) Accurately ripped
  7   | (7/7) Accurately ripped
  8   | (7/7) Accurately ripped
  9   | (7/7) Accurately ripped
 10   | (7/7) Accurately ripped
 11   | (7/7) Accurately ripped
 12   | (7/7) Accurately ripped
 13   | (7/7) Accurately ripped
 14   | (7/7) Accurately ripped
 15   | (7/7) Accurately ripped
 16   | (7/7) Accurately ripped


==== Log checksum 34467908ED64CDE9700FC65B7680A51FE07BECDF03EC6C1208CF3052877C8E94 ====



Create a new paste based on this one


Comments: