[ create a new paste ] login | about

Link: http://codepad.org/Dolfsfv1    [ raw code | fork ]

Plain Text, pasted on Jul 6:
foobar2000 1.3.17 / Dynamic Range Meter 1.1.1
log date: 2018-07-05 18:50:17

--------------------------------------------------------------------------------
Analyzed: Stevie Wonder / Hotter Than July
--------------------------------------------------------------------------------

DR         Peak         RMS     Duration Track
--------------------------------------------------------------------------------
DR16      -4.63 dB   -22.42 dB      4:08 01-Did I Hear You Say You Love Me
DR16      -5.83 dB   -24.19 dB      5:06 02-All I Do
DR15      -4.73 dB   -24.44 dB      4:39 03-Rocket Love
DR15      -6.48 dB   -22.85 dB      4:39 04-I Ain't Gonna Stand For It
DR15      -5.84 dB   -22.78 dB      3:40 05-As If You Read My Mind
DR17      -3.72 dB   -23.67 dB      5:08 06-Master Blaster (Jammin')
DR16      -4.55 dB   -23.50 dB      4:25 07-Do Like You
DR16      -4.95 dB   -23.59 dB      3:59 08-Cash In Your Face
DR12      -8.23 dB   -24.53 dB      4:05 09-Lately
DR16      -4.85 dB   -23.64 dB      5:58 10-Happy Birthday
--------------------------------------------------------------------------------

Number of tracks:  10
Official DR value: DR15

Samplerate:        2822400 Hz / PCM Samplerate: 176400 Hz
Channels:          2
Bits per sample:   1
Bitrate:           5645 kbps
Codec:             DSD64
================================================================================




Create a new paste based on this one


Comments: