[ create a new paste ] login | about

Link: http://codepad.org/DplKgoV5    [ raw code | fork ]

Plain Text, pasted on May 29:
foobar2000 1.4.4 / Dynamic Range Meter 1.1.1
log date: 2019-05-28 19:32:09

--------------------------------------------------------------------------------
Analyzed: The Rolling Stones / Between The Buttons
--------------------------------------------------------------------------------

DR         Peak         RMS     Duration Track
--------------------------------------------------------------------------------
DR11      -0.05 dB   -14.29 dB      2:06 01-Yesterday's Papers
DR12      -0.26 dB   -16.33 dB      3:18 02-My Obsession
DR12      -3.87 dB   -19.54 dB      3:26 03-Back Street Girl
DR15      -0.53 dB   -19.73 dB      2:09 04-Connection
DR11      -2.69 dB   -17.31 dB      2:44 05-She Smiled Sweetly
DR12      -1.69 dB   -15.74 dB      4:13 06-Cool, Calm And Collected
DR12      -0.06 dB   -15.92 dB      2:16 07-All Sold Out
DR12      -1.09 dB   -14.70 dB      3:18 08-Please Go Home
DR12      -0.72 dB   -15.35 dB      3:52 09-Who's Been Sleeping Here?
DR13      -0.27 dB   -16.68 dB      3:12 10-Complicated
DR12      -0.10 dB   -15.12 dB      2:44 11-Miss Amanda Jones
DR12      -0.06 dB   -15.48 dB      4:52 12-Something Happened To Me Yesterday
--------------------------------------------------------------------------------

Number of tracks:  12
Official DR value: DR12

Samplerate:        96000 Hz
Channels:          2
Bits per sample:   24
Bitrate:           3015 kbps
Codec:             FLAC
================================================================================




Create a new paste based on this one


Comments: