[ create a new paste ] login | about

Link: http://codepad.org/DthO1azf    [ raw code | fork ]

Plain Text, pasted on Dec 18:
foobar2000 1.4.8 / Dynamic Range Meter 1.1.1
log date: 2019-12-14 22:07:02

--------------------------------------------------------------------------------
Analyzed: Yellow Magic Orchestra / Service (2019 Japan Hybrid SACD)
--------------------------------------------------------------------------------

DR         Peak         RMS     Duration Track
--------------------------------------------------------------------------------
DR6       -0.09 dB    -7.92 dB      3:32 01-Limbo
DR11      -0.17 dB   -16.75 dB      4:23 02-S.E.T.-1
DR7       -0.13 dB    -8.28 dB      4:42 03-The Madmen
DR10      -0.16 dB   -14.38 dB      1:24 04-S.E.T.-2
DR7       -0.10 dB    -8.58 dB      4:30 05-Chinese Whispers
DR16      -0.15 dB   -20.33 dB      4:17 06-S.E.T.-3
DR6       -0.01 dB    -7.54 dB      4:44 07-You've Got To Help Yourself
DR10      -0.22 dB   -15.47 dB      5:54 08-S.E.T.+YMO
DR6       -0.14 dB    -8.21 dB      4:22 09-Shadows On The Ground
DR12      -0.15 dB   -13.89 dB      3:26 10-S.E.T.-4
DR7       -0.14 dB    -7.94 dB      3:39 11-See-Through
DR13      -0.27 dB   -18.10 dB      4:09 12-S.E.T. Muramatsuri
DR6       -0.05 dB    -7.65 dB      5:16 13-Perspective
DR10      -0.29 dB   -13.81 dB      0:47 14-S.E.T.-5
--------------------------------------------------------------------------------

Number of tracks:  14
Official DR value: DR9

Samplerate:        88200 Hz
Channels:          2
Bits per sample:   24
Bitrate:           2433 kbps
Codec:             FLAC
================================================================================




Create a new paste based on this one


Comments: