[ create a new paste ] login | about

Link: http://codepad.org/DuwMCeIx    [ raw code | fork ]

Plain Text, pasted on Sep 12:
foobar2000 1.3.17 / Dynamic Range Meter 1.1.1
log date: 2018-09-11 00:10:47

--------------------------------------------------------------------------------
Analyzed: Roxy Music / Avalon
--------------------------------------------------------------------------------

DR         Peak         RMS     Duration Track
--------------------------------------------------------------------------------
DR15      -2.09 dB   -22.97 dB      4:30 01-More Than This 
DR13      -4.37 dB   -22.86 dB      5:22 01-More Than This 
--------------------------------------------------------------------------------

Number of tracks:  2
Official DR value: DR14

Samplerate:        2822400 Hz / PCM Samplerate: 176400 Hz
Channels:          6
Bits per sample:   1
Bitrate:           16934 kbps
Codec:             DST64
================================================================================

--------------------------------------------------------------------------------
Analyzed: Roxy Music / Avalon
--------------------------------------------------------------------------------

DR         Peak         RMS     Duration Track
--------------------------------------------------------------------------------
DR15      -1.14 dB   -21.30 dB      4:30 02-The Space Between 
DR14      -2.19 dB   -23.51 dB      4:17 03-Avalon
DR13      -3.94 dB   -24.68 dB      1:45 04-India
DR15      -1.77 dB   -23.45 dB      3:27 05-While My Heart Is Still Beating 
DR14      -1.65 dB   -22.45 dB      3:54 06-The Main Thing 
DR16      -1.93 dB   -22.14 dB      4:43 07-Take A Chance With Me 
DR14      -1.87 dB   -22.85 dB      4:17 08-To Turn You On 
DR14      -1.69 dB   -19.63 dB      4:26 09-True To Life 
DR11      -9.86 dB   -26.34 dB      1:32 10-Tara
--------------------------------------------------------------------------------

Number of tracks:  9
Official DR value: DR14

Samplerate:        2822400 Hz / PCM Samplerate: 176400 Hz
Channels:          6
Bits per sample:   1
Bitrate:           16934 kbps
Codec:             DST64
================================================================================

--------------------------------------------------------------------------------
Analyzed: Roxy Music / Avalon
--------------------------------------------------------------------------------

DR         Peak         RMS     Duration Track
--------------------------------------------------------------------------------
DR13      -3.28 dB   -19.05 dB      4:30 01-More Than This 
DR15      -3.46 dB   -20.54 dB      4:30 02-The Space Between 
DR13      -4.00 dB   -19.26 dB      4:17 03-Avalon
DR13      -4.69 dB   -20.99 dB      1:45 04-India
DR15      -3.67 dB   -20.33 dB      3:26 05-While My Heart Is Still Beating 
DR14      -3.57 dB   -19.58 dB      3:54 06-The Main Thing 
DR13      -3.43 dB   -18.85 dB      4:42 07-Take A Chance With Me 
DR11      -3.90 dB   -18.60 dB      4:17 08-To Turn You On 
DR12      -3.89 dB   -17.86 dB      4:25 09-True To Life 
DR10     -10.25 dB   -23.48 dB      1:32 10-Tara
--------------------------------------------------------------------------------

Number of tracks:  10
Official DR value: DR13

Samplerate:        2822400 Hz / PCM Samplerate: 176400 Hz
Channels:          2
Bits per sample:   1
Bitrate:           5645 kbps
Codec:             DST64
================================================================================




Create a new paste based on this one


Comments: