[ create a new paste ] login | about

Link: http://codepad.org/DuzlNMdB    [ raw code | fork ]

Plain Text, pasted on Apr 20:
foobar2000 1.1.11 / Dynamic Range Meter 1.1.1
log date: 2012-11-22 12:26:31

--------------------------------------------------------------------------------
Analyzed: Isao Tomita / The Tale Of Genji, Symphonic Fantasy (Ultimate Edition - Hybrid SACD - Disc 1)
--------------------------------------------------------------------------------

DR         Peak         RMS     Duration Track
--------------------------------------------------------------------------------
DR14      -0.74 dB   -22.24 dB      5:27 01-Tsuide No Kyoku
DR13      -1.70 dB   -20.28 dB      6:17 02-Sakura No Kisetsu, Oukyuu No Hibi
DR10      -9.51 dB   -26.04 dB      1:38 03-Fuji Tsubo He No Shibo
DR15      -0.85 dB   -24.55 dB      2:55 04-Miya No Go Tobari Dai
DR12     -10.59 dB   -26.52 dB      0:49 05-Teien
DR15      -0.59 dB   -21.32 dB      3:35 06-Kangen No O Asobi
DR11     -13.69 dB   -29.29 dB      1:41 07-Yononaka Ha
DR12      -4.46 dB   -21.61 dB      3:21 08-Kitayama No Jiin
DR14      -2.32 dB   -22.12 dB      5:11 09-Utsukushii Doujo Wakamurasaki
DR12      -3.45 dB   -22.83 dB      3:02 10-Aoi No Ue
DR11      -0.92 dB   -18.50 dB      3:04 11-Roku Jou No Miyasundokoro
DR12      -0.72 dB   -17.94 dB      3:59 12-Toki Ou No Gyouretsu Sha Arasoi
DR15      -0.01 dB   -20.57 dB      7:52 13-Ikiryou
--------------------------------------------------------------------------------

Number of tracks:  13
Official DR value: DR13

Samplerate:        88200 Hz
Channels:          2
Bits per sample:   24
Bitrate:           2330 kbps
Codec:             FLAC
================================================================================


foobar2000 1.1.11 / Dynamic Range Meter 1.1.1
log date: 2012-11-22 12:27:27

--------------------------------------------------------------------------------
Analyzed: Isao Tomita / The Tale Of Genji, Symphonic Fantasy (Ultimate Edition - Hybrid SACD - Disc 2)
--------------------------------------------------------------------------------

DR         Peak         RMS     Duration Track
--------------------------------------------------------------------------------
DR16      -1.00 dB   -23.07 dB      7:34 01-Onna Sannomiya
DR12     -10.26 dB   -27.74 dB      1:31 02-Fuji Tsubo O Omou
DR15      -6.20 dB   -27.09 dB      2:10 03-Miyasundokoro No Shiryou
DR13      -0.71 dB   -19.40 dB      5:19 04-Murasaki No Ue Banka
DR12      -6.11 dB   -24.02 dB      2:35 05-Uta 'uki Yo Ni Ha'
DR13      -0.43 dB   -19.52 dB      9:55 06-Ukifune
DR13     -12.60 dB   -30.82 dB      1:04 07-Shukke No Fue
DR12      -1.14 dB   -19.06 dB      6:07 08-Futatabi Otozureru Haru
DR13      -1.28 dB   -20.06 dB      3:03 09-Shuukyoku Heike No Yo He
--------------------------------------------------------------------------------

Number of tracks:  9
Official DR value: DR13

Samplerate:        88200 Hz
Channels:          2
Bits per sample:   24
Bitrate:           2437 kbps
Codec:             FLAC
================================================================================




Create a new paste based on this one


Comments: