[ create a new paste ] login | about

Link: http://codepad.org/Dv7KJLDK    [ raw code | fork ]

Plain Text, pasted on Jul 12:
CD1:
Exact Audio Copy V1.3 from 2. September 2016

EAC extraction logfile from 12. June 2019, 20:59

Various Artists / The Rolling Stones Rock And Roll Circus (Expanded Edition)

Used drive  : HL-DT-STBD-RE  WH16NS60   Adapter: 1  ID: 0

Read mode               : Secure
Utilize accurate stream : Yes
Defeat audio cache      : Yes
Make use of C2 pointers : No

Read offset correction                      : 6
Overread into Lead-In and Lead-Out          : No
Fill up missing offset samples with silence : Yes
Delete leading and trailing silent blocks   : No
Null samples used in CRC calculations       : Yes
Used interface                              : Native Win32 interface for Win NT & 2000

Used output format              : User Defined Encoder
Selected bitrate                : 1024 kBit/s
Quality                         : High
Add ID3 tag                     : No
Command line compressor         : C:\Program Files (x86)\Exact Audio Copy\Flac\flac.exe
Additional command line options : -8 -V -T "ARTIST=%artist%" -T "ALBUM=%albumtitle%" -T "DATE=%year%" -T "GENRE=%genre%" -T "DISCNUMBER=%cdnumber%" -T "TOTALDISCS=%totalcds%" -T "TOTALTRACKS=%numtracks%" -T "COMMENT=EAC V1.3, Secure Mode, Test & Copy, AccurateRip, FLAC -8" %source% -o %dest%


TOC of the extracted CD

     Track |   Start  |  Length  | Start sector | End sector 
    ---------------------------------------------------------
        1  |  0:00.00 |  0:26.63 |         0    |     2012   
        2  |  0:26.63 |  0:55.69 |      2013    |     6206   
        3  |  1:22.57 |  0:09.61 |      6207    |     6942   
        4  |  1:32.43 |  3:24.57 |      6943    |    22299   
        5  |  4:57.25 |  0:07.07 |     22300    |    22831   
        6  |  5:04.32 |  7:32.07 |     22832    |    56738   
        7  | 12:36.39 |  0:44.56 |     56739    |    60094   
        8  | 13:21.20 |  3:49.46 |     60095    |    77315   
        9  | 17:10.66 |  0:05.53 |     77316    |    77743   
       10  | 17:16.44 |  2:31.19 |     77744    |    89087   
       11  | 19:47.63 |  1:03.70 |     89088    |    93882   
       12  | 20:51.58 |  4:27.09 |     93883    |   113916   
       13  | 25:18.67 |  4:50.10 |    113917    |   135676   
       14  | 30:09.02 |  3:34.62 |    135677    |   151788   
       15  | 33:43.64 |  2:58.57 |    151789    |   165195   
       16  | 36:42.46 |  4:13.44 |    165196    |   184214   
       17  | 40:56.15 |  4:24.00 |    184215    |   204014   
       18  | 45:20.15 |  8:49.03 |    204015    |   243692   
       19  | 54:09.18 |  4:57.72 |    243693    |   266039   


Range status and errors

Selected range

     Filename D:\Losslessma.net\The Rolling Stones Rock And Roll Circus (2019)\Disc 1\Rock And Roll Circus CD 1.wav

     Peak level 97.7 %
     Extraction speed 7.7 X
     Range quality 100.0 %
     Test CRC 329817D6
     Copy CRC 329817D6
     Copy OK

No errors occurred

 
AccurateRip summary
 
Track  1  not present in database
Track  2  not present in database
Track  3  not present in database
Track  4  not present in database
Track  5  not present in database
Track  6  not present in database
Track  7  not present in database
Track  8  not present in database
Track  9  not present in database
Track 10  not present in database
Track 11  not present in database
Track 12  not present in database
Track 13  not present in database
Track 14  not present in database
Track 15  not present in database
Track 16  not present in database
Track 17  not present in database
Track 18  not present in database
Track 19  not present in database
 
None of the tracks are present in the AccurateRip database

End of status report

---- CUETools DB Plugin V2.1.6

[CTDB TOCID: dXsdKPUqCS2fkjKPCyjXXpRuMiw-] found
Submit result: dXsdKPUqCS2fkjKPCyjXXpRuMiw- has been confirmed
Track | CTDB Status
  1   | (7/7) Accurately ripped
  2   | (7/7) Accurately ripped
  3   | (7/7) Accurately ripped
  4   | (7/7) Accurately ripped
  5   | (7/7) Accurately ripped
  6   | (7/7) Accurately ripped
  7   | (7/7) Accurately ripped
  8   | (7/7) Accurately ripped
  9   | (7/7) Accurately ripped
 10   | (7/7) Accurately ripped
 11   | (7/7) Accurately ripped
 12   | (7/7) Accurately ripped
 13   | (7/7) Accurately ripped
 14   | (7/7) Accurately ripped
 15   | (7/7) Accurately ripped
 16   | (7/7) Accurately ripped
 17   | (7/7) Accurately ripped
 18   | (7/7) Accurately ripped
 19   | (7/7) Accurately ripped


==== Log checksum 6392ABD0A7467B42C22D288FDF961153E9687AE2CEDA076C403A8E0CE8C430F6 ====



CD2:
Exact Audio Copy V1.3 from 2. September 2016

EAC extraction logfile from 12. June 2019, 21:20

Various Artists / The Rolling Stones Rock And Roll Circus (Expanded Edition) (Bonus Audio)

Used drive  : HL-DT-STBD-RE  WH16NS60   Adapter: 1  ID: 0

Read mode               : Secure
Utilize accurate stream : Yes
Defeat audio cache      : Yes
Make use of C2 pointers : No

Read offset correction                      : 6
Overread into Lead-In and Lead-Out          : No
Fill up missing offset samples with silence : Yes
Delete leading and trailing silent blocks   : No
Null samples used in CRC calculations       : Yes
Used interface                              : Native Win32 interface for Win NT & 2000

Used output format              : User Defined Encoder
Selected bitrate                : 1024 kBit/s
Quality                         : High
Add ID3 tag                     : No
Command line compressor         : C:\Program Files (x86)\Exact Audio Copy\Flac\flac.exe
Additional command line options : -8 -V -T "ARTIST=%artist%" -T "ALBUM=%albumtitle%" -T "DATE=%year%" -T "GENRE=%genre%" -T "DISCNUMBER=%cdnumber%" -T "TOTALDISCS=%totalcds%" -T "TOTALTRACKS=%numtracks%" -T "COMMENT=EAC V1.3, Secure Mode, Test & Copy, AccurateRip, FLAC -8" %source% -o %dest%


TOC of the extracted CD

     Track |   Start  |  Length  | Start sector | End sector 
    ---------------------------------------------------------
        1  |  0:00.00 |  5:52.69 |         0    |    26468   
        2  |  5:52.69 |  6:47.30 |     26469    |    57023   
        3  | 12:40.24 |  4:45.48 |     57024    |    78446   
        4  | 17:25.72 |  2:47.39 |     78447    |    91010   
        5  | 20:13.36 |  4:17.21 |     91011    |   110306   
        6  | 24:30.57 |  4:30.42 |    110307    |   130598   
        7  | 29:01.24 |  0:19.49 |    130599    |   132072   
        8  | 29:20.73 |  4:03.27 |    132073    |   150324   
        9  | 33:24.25 |  2:28.06 |    150325    |   161430   


Range status and errors

Selected range

     Filename D:\Losslessma.net\The Rolling Stones Rock And Roll Circus (2019)\Disc 2\Rock And Roll Circus CD 2.wav

     Peak level 97.1 %
     Extraction speed 4.2 X
     Range quality 100.0 %
     Test CRC BB95555C
     Copy CRC BB95555C
     Copy OK

No errors occurred

 
AccurateRip summary
 
Track  1  not present in database
Track  2  not present in database
Track  3  not present in database
Track  4  not present in database
Track  5  not present in database
Track  6  not present in database
Track  7  not present in database
Track  8  not present in database
Track  9  not present in database
 
None of the tracks are present in the AccurateRip database

End of status report

---- CUETools DB Plugin V2.1.6

[CTDB TOCID: HVZIR3U2sh26mBMl0ZpLm4yMPKI-] found
Submit result: HVZIR3U2sh26mBMl0ZpLm4yMPKI- has been confirmed
Track | CTDB Status
  1   | (7/7) Accurately ripped
  2   | (7/7) Accurately ripped
  3   | (7/7) Accurately ripped
  4   | (7/7) Accurately ripped
  5   | (7/7) Accurately ripped
  6   | (7/7) Accurately ripped
  7   | (7/7) Accurately ripped
  8   | (7/7) Accurately ripped
  9   | (7/7) Accurately ripped


==== Log checksum D172B732510BC27654E975AB1944FC2C3650510E3FABD44DCDEA7119E9A637A4 ====




Create a new paste based on this one


Comments: