[ create a new paste ] login | about

Link: http://codepad.org/DvfNcQO1    [ raw code | fork ]

Plain Text, pasted on Apr 19:
[CUETools log; Date: 4/19/2018 8:55:45 AM; Version: 2.1.5]
Pregap length 00:00:37.
[CTDB TOCID: x1Q9SR.YbOhOtMuUy.2z3VbLpPo-] found.
Track | CTDB Status
  1   | (7/7) Accurately ripped
  2   | (7/7) Accurately ripped
  3   | (7/7) Accurately ripped
  4   | (7/7) Accurately ripped
  5   | (7/7) Accurately ripped
  6   | (7/7) Accurately ripped
  7   | (7/7) Accurately ripped
  8   | (7/7) Accurately ripped
  9   | (7/7) Accurately ripped
 10   | (7/7) Accurately ripped
 11   | (7/7) Accurately ripped
 12   | (7/7) Accurately ripped
 13   | (7/7) Accurately ripped
[AccurateRip ID: 001db1a0-012214ea-af0d630d] found.
Track   [  CRC   |   V2   ] Status
 01     [e0e2d78e|11cd22fa] (1+1/5) Accurately ripped
 02     [4dc24b38|45e60003] (1+1/5) Accurately ripped
 03     [08850a24|0edd80c8] (1+1/5) Accurately ripped
 04     [9b4fbb7c|4e2f49fd] (1+1/5) Accurately ripped
 05     [8972962f|7b6704d5] (1+1/5) Accurately ripped
 06     [2717783a|b5f408fb] (1+1/5) Accurately ripped
 07     [b35ce79e|09ff6d5e] (1+1/5) Accurately ripped
 08     [77a41966|309c8d9b] (1+1/5) Accurately ripped
 09     [6f4dbc5d|618fc1a6] (1+1/5) Accurately ripped
 10     [a7cf364e|454c012e] (1+1/5) Accurately ripped
 11     [5b9cf079|7541b70e] (1+1/5) Accurately ripped
 12     [d2199c95|55b9b3d9] (1+1/5) Accurately ripped
 13     [75b05e05|5cdb6f47] (1+1/5) Accurately ripped
Offsetted by -67:
 01     [3344b2a1] (1/5) Accurately ripped
 02     [2954929e] (1/5) Accurately ripped
 03     [4a877f22] (1/5) Accurately ripped
 04     [4acec127] (1/5) Accurately ripped
 05     [658b789a] (1/5) Accurately ripped
 06     [a5433018] (1/5) Accurately ripped
 07     [367fc3e7] (1/5) Accurately ripped
 08     [b2d9f0c1] (1/5) Accurately ripped
 09     [c3830a65] (1/5) Accurately ripped
 10     [32a83205] (1/5) Accurately ripped
 11     [35500f26] (1/5) Accurately ripped
 12     [04c7aaa0] (1/5) Accurately ripped
 13     [99bb74c6] (1/5) Accurately ripped

Track Peak [ CRC32  ] [W/O NULL] [  LOG   ]
 --   98.8 [FE3166FB] [560D4FE0]   CRC32   
 01   97.7 [B1ED4404] [E6E89C19]           
 02   94.4 [A806636C] [661213D4]           
 03   94.4 [9E81EB21] [B159A0DC]           
 04   98.8 [2609E5F1] [2ACF7B2B]           
 05   98.8 [B659EE1F] [A56BA96F]           
 06   94.4 [4DB2178C] [9D5CE4A0]           
 07   91.2 [49F14058] [158E0765]           
 08   92.2 [933F1C53] [88D96293]           
 09   92.2 [54335444] [F4A7E6C5]           
 10   93.3 [F6B972D2] [61DB31CC]           
 11   96.6 [A0EC3C62] [A6B97964]           
 12   98.8 [CB5BEE78] [F2423073]           
 13   98.8 [615D45D5] [C13501E6]           



Create a new paste based on this one


Comments: