[ create a new paste ] login | about

Link: http://codepad.org/E0adUFV4    [ raw code | fork ]

Plain Text, pasted on Jul 2:
foobar2000 1.1.11 / Dynamic Range Meter 1.1.1
log date: 2012-11-22 13:19:24

--------------------------------------------------------------------------------
Analyzed: Willy Porter / Willy Porter (2005 Hybrid SACD)
--------------------------------------------------------------------------------

DR         Peak         RMS     Duration Track
--------------------------------------------------------------------------------
DR11      -0.54 dB   -13.44 dB      4:00 01-Unconditional
DR8       -0.42 dB   -10.56 dB      3:38 02-If Love were an Airplane
DR8       -0.63 dB   -11.12 dB      3:39 03-Dandelion on the Minefield
DR13      -0.38 dB   -16.00 dB      3:52 04-Breathe
DR10      -0.43 dB   -12.12 dB      5:50 05-Big Yellow Pine
DR7       -0.01 dB    -9.73 dB      3:37 06-Dirty Movie
DR11      -0.42 dB   -15.41 dB      3:41 07-Dishwater Blonde
DR11      -0.29 dB   -12.65 dB      4:01 08-All Fall Down
DR12      -0.31 dB   -14.32 dB      3:40 09-Everything but Sorry
DR11      -0.44 dB   -13.54 dB      3:53 10-How Did You Know?
DR10      -0.44 dB   -13.06 dB      3:33 11-Blue Light
--------------------------------------------------------------------------------

Number of tracks:  11
Official DR value: DR10

Samplerate:        88200 Hz
Channels:          2
Bits per sample:   24
Bitrate:           2711 kbps
Codec:             FLAC
================================================================================




Create a new paste based on this one


Comments: