[ create a new paste ] login | about

Link: http://codepad.org/E2ovZ3WP    [ raw code | fork ]

Plain Text, pasted on Aug 2:
[CUETools log; Date: 7/7/2015 4:39:28 PM; Version: 2.1.5]
[CTDB TOCID: vEAIb7yHmCE83KIY7du6aGhJk6s-] found.
Track | CTDB Status
  1   | (2265/2278) Accurately ripped
  2   | (2264/2278) Accurately ripped
  3   | (2269/2278) Accurately ripped
  4   | (2265/2278) Accurately ripped
  5   | (2267/2278) Accurately ripped
  6   | (2267/2278) Accurately ripped
  7   | (2264/2278) Accurately ripped
  8   | (2268/2278) Accurately ripped
  9   | (2267/2278) Accurately ripped
 10   | (2266/2278) Accurately ripped
 11   | (2267/2278) Accurately ripped
 12   | (2267/2278) Accurately ripped
 13   | (2265/2278) Accurately ripped
 14   | (2265/2278) Accurately ripped
 15   | (2264/2278) Accurately ripped
 16   | (2264/2278) Accurately ripped
 17   | (2265/2278) Accurately ripped
 18   | (2221/2278) Accurately ripped, or (40/2278) differs in 15 samples @06:30:10,06:30:32,06:31:12
[AccurateRip ID: 002383e0-01c59afb-0b0c6e12] found.
Track   [  CRC   |   V2   ] Status
 01     [b00b995d|c716cbd2] (018+200/483) Accurately ripped
 02     [d84aa66c|cf9bb59e] (018+200/480) Accurately ripped
 03     [3d8d7087|2064f648] (018+200/486) Accurately ripped
 04     [56305ff9|b00a487a] (018+200/483) Accurately ripped
 05     [72e9c79c|4b5d047d] (018+200/483) Accurately ripped
 06     [99fc852e|cf8b6683] (018+200/483) Accurately ripped
 07     [fd95c011|d688c675] (018+200/482) Accurately ripped
 08     [fc1a52a6|83c003be] (018+200/482) Accurately ripped
 09     [41405383|0854d07b] (018+200/482) Accurately ripped
 10     [e5b5fcfe|b5d14af9] (018+200/483) Accurately ripped
 11     [70fc3bb4|686db5a6] (018+200/482) Accurately ripped
 12     [04ce8d99|366b67cb] (018+200/482) Accurately ripped
 13     [dcc62c90|d0bf0676] (017+200/481) Accurately ripped
 14     [fe65eb9c|7fb93262] (018+200/482) Accurately ripped
 15     [41b81771|26b91d79] (018+200/481) Accurately ripped
 16     [ab4b615c|812be38e] (018+200/482) Accurately ripped
 17     [5b94350a|bcf20ff4] (018+200/481) Accurately ripped
 18     [1ede1427|9f307b82] (018+200/481) Accurately ripped
Offsetted by 670:
 01     [1a70c418] (038/483) Accurately ripped
 02     [c773ce84] (038/480) Accurately ripped
 03     [05ef73fa] (038/486) Accurately ripped
 04     [0e97cfbc] (038/483) Accurately ripped
 05     [048a6ff7] (038/483) Accurately ripped
 06     [9456f80e] (038/483) Accurately ripped
 07     [02279ca7] (038/482) Accurately ripped
 08     [32219444] (038/482) Accurately ripped
 09     [b1fe0513] (038/482) Accurately ripped
 10     [77857b0b] (038/483) Accurately ripped
 11     [b3d0fdfd] (038/482) Accurately ripped
 12     [c4d163d3] (038/482) Accurately ripped
 13     [53661f15] (038/481) Accurately ripped
 14     [c989ca93] (038/482) Accurately ripped
 15     [dd65765b] (037/481) Accurately ripped
 16     [4c1c6add] (038/482) Accurately ripped
 17     [efbb775f] (037/481) Accurately ripped
 18     [6e302f13] (037/481) Accurately ripped
Offsetted by -90:
 01     [cb69f97d] (000/483) No match (V2 was not tested)
 02     [37667269] (000/480) No match (V2 was not tested)
 03     [cffbf1c4] (000/486) No match (V2 was not tested)
 04     [7a1178e7] (000/483) No match (V2 was not tested)
 05     [0fff56d3] (000/483) No match (V2 was not tested)
 06     [5fd6364d] (000/483) No match (V2 was not tested)
 07     [21332ff5] (000/482) No match (V2 was not tested)
 08     [30ad97af] (000/482) No match (V2 was not tested)
 09     [7cc79d69] (000/482) No match (V2 was not tested)
 10     [a46e1e34] (000/483) No match (V2 was not tested)
 11     [a7c219bd] (000/482) No match (V2 was not tested)
 12     [7edee577] (000/482) No match (V2 was not tested)
 13     [35609628] (000/481) No match (V2 was not tested)
 14     [60322062] (000/482) No match (V2 was not tested)
 15     [d21ef5be] (000/481) No match (V2 was not tested)
 16     [6d8ff1bd] (000/482) No match (V2 was not tested)
 17     [be621ca9] (000/481) No match (V2 was not tested)
 18     [7459baca] (000/481) No match (V2 was not tested)
Offsetted by -3:
 01     [6460c961] (000/483) No match (V2 was not tested)
 02     [1278cd5b] (000/480) No match (V2 was not tested)
 03     [c5841f07] (000/486) No match (V2 was not tested)
 04     [6367ac56] (000/483) No match (V2 was not tested)
 05     [bd762a9f] (000/483) No match (V2 was not tested)
 06     [666b7ea0] (000/483) No match (V2 was not tested)
 07     [f58f5f9b] (000/482) No match (V2 was not tested)
 08     [e7185731] (000/482) No match (V2 was not tested)
 09     [67b549dd] (000/482) No match (V2 was not tested)
 10     [c4aa1874] (000/483) No match (V2 was not tested)
 11     [b8b64e62] (000/482) No match (V2 was not tested)
 12     [2624db72] (000/482) No match (V2 was not tested)
 13     [83b10482] (000/481) No match (V2 was not tested)
 14     [4ac9ba93] (000/482) No match (V2 was not tested)
 15     [40ae4851] (000/481) No match (V2 was not tested)
 16     [f27aa946] (000/482) No match (V2 was not tested)
 17     [50758ff2] (000/481) No match (V2 was not tested)
 18     [a00bbbe3] (000/481) No match (V2 was not tested)
Offsetted by 6:
 01     [d9f54fba] (000/483) No match
 02     [78eb9e74] (000/480) No match (V2 was not tested)
 03     [df27d740] (000/486) No match
 04     [8d9438fb] (000/483) No match
 05     [a23f57f4] (000/483) No match
 06     [4fcf2fb4] (000/483) No match
 07     [15275779] (000/482) No match
 08     [d4b01459] (000/482) No match
 09     [79abcb3c] (000/482) No match
 10     [300b5562] (000/483) No match
 11     [e9a1af35] (000/482) No match
 12     [5eabf5a0] (000/482) No match
 13     [e866d229] (000/481) No match
 14     [9b5d06e1] (000/482) No match
 15     [6ece0659] (000/481) No match
 16     [9c437093] (000/482) No match
 17     [82cbfe8b] (000/481) No match
 18     [e3cce3a7] (000/481) No match
Offsetted by 21:
 01     [812bd4a9] (000/483) No match (V2 was not tested)
 02     [2ae5f287] (000/480) No match (V2 was not tested)
 03     [d673b0f7] (000/486) No match (V2 was not tested)
 04     [9c621ac4] (000/483) No match (V2 was not tested)
 05     [73a27d98] (000/483) No match (V2 was not tested)
 06     [506de860] (000/483) No match (V2 was not tested)
 07     [462e3a58] (000/482) No match (V2 was not tested)
 08     [3ed44521] (000/482) No match (V2 was not tested)
 09     [7cc00724] (000/482) No match (V2 was not tested)
 10     [e7b6b846] (000/483) No match (V2 was not tested)
 11     [1776d544] (000/482) No match (V2 was not tested)
 12     [c3447001] (000/482) No match (V2 was not tested)
 13     [e7f5abc4] (000/481) No match (V2 was not tested)
 14     [f9129e1b] (000/482) No match (V2 was not tested)
 15     [9a110ba9] (000/481) No match (V2 was not tested)
 16     [5a955951] (000/482) No match (V2 was not tested)
 17     [4b98ed3d] (000/481) No match (V2 was not tested)
 18     [98d73725] (000/481) No match (V2 was not tested)
Offsetted by 640:
 01     [7af451b4] (000/483) No match (V2 was not tested)
 02     [51d197c3] (000/480) No match (V2 was not tested)
 03     [74fd717d] (000/486) No match (V2 was not tested)
 04     [0e35a4ad] (000/483) No match (V2 was not tested)
 05     [1f0920df] (000/483) No match (V2 was not tested)
 06     [57cdb022] (000/483) No match (V2 was not tested)
 07     [c125bade] (000/482) No match (V2 was not tested)
 08     [86aefb6a] (000/482) No match (V2 was not tested)
 09     [308da5da] (000/482) No match (V2 was not tested)
 10     [800a1119] (000/483) No match (V2 was not tested)
 11     [ca6ea526] (000/482) No match (V2 was not tested)
 12     [2665b5a3] (000/482) No match (V2 was not tested)
 13     [e5772f41] (000/481) No match (V2 was not tested)
 14     [baa8fb99] (000/482) No match (V2 was not tested)
 15     [1814e72f] (000/481) No match (V2 was not tested)
 16     [296ddf96] (000/482) No match (V2 was not tested)
 17     [4d96a0fc] (000/481) No match (V2 was not tested)
 18     [a21f5ff5] (000/481) No match (V2 was not tested)
Offsetted by 676:
 01     [43cddba4] (000/483) No match (V2 was not tested)
 02     [fa47ba99] (000/480) No match (V2 was not tested)
 03     [20f322d7] (000/486) No match (V2 was not tested)
 04     [9d9b1f68] (000/483) No match (V2 was not tested)
 05     [4371856d] (000/483) No match (V2 was not tested)
 06     [21d94f3f] (000/483) No match (V2 was not tested)
 07     [6f9eb1ec] (000/482) No match (V2 was not tested)
 08     [5c0475c5] (000/482) No match (V2 was not tested)
 09     [1d7c7814] (000/482) No match (V2 was not tested)
 10     [df8f2c0a] (000/483) No match (V2 was not tested)
 11     [cef875f2] (000/482) No match (V2 was not tested)
 12     [b0ff2649] (000/482) No match (V2 was not tested)
 13     [0f8508f6] (000/481) No match (V2 was not tested)
 14     [00718458] (000/482) No match (V2 was not tested)
 15     [0786de45] (000/481) No match (V2 was not tested)
 16     [43b669cd] (000/482) No match (V2 was not tested)
 17     [eff6d2e7] (000/481) No match (V2 was not tested)
 18     [eef7dd81] (000/481) No match (V2 was not tested)

Track Peak [ CRC32  ] [W/O NULL] [  LOG   ]
 --  100.0 [887C3710] [01BB9262]   CRC32   
 01   74.3 [C529F484] [11B27BAB]           
 02   98.5 [BDD7E42B] [22F8EC47]           
 03   61.4 [9E43EC6A] [0B719F28]           
 04   94.6 [249907F1] [AD342879]           
 05   93.5 [0307A2E2] [FBF924B4]           
 06   75.0 [2A895599] [85697B59]           
 07  100.0 [2FD668DC] [CA626DC4]           
 08   49.8 [042AAE3D] [6B90C6B4]           
 09   68.7 [47A7745C] [52EE2B8C]           
 10   62.4 [67DD2A9F] [9AF4625B]           
 11   88.2 [1880DF6C] [08AD4997]           
 12   76.7 [DCCF3CB9] [0652521F]           
 13   91.5 [E997605B] [01F24F4E]           
 14   95.1 [AC1D3B20] [1BCFEEC5]           
 15   78.7 [D4A9DDDE] [D97DFA7B]           
 16   74.4 [4E801414] [95CC166D]           
 17   93.5 [F8A4CEF4] [5DAB4220]           
 18   97.4 [B87E97D7] [FD0B415C]           



Create a new paste based on this one


Comments: