[ create a new paste ] login | about

Link: http://codepad.org/EBLW1tgm    [ raw code | fork ]

Plain Text, pasted on Apr 27:
Exact Audio Copy V1.1 from 23. June 2015

EAC extraction logfile from 15. April 2016, 19:48

Metallica / Ride The Lightning

Used drive  : HL-DT-STDVDRAM GH22NS90   Adapter: 1  ID: 0

Read mode               : Secure
Utilize accurate stream : Yes
Defeat audio cache      : Yes
Make use of C2 pointers : No

Read offset correction                      : 6
Overread into Lead-In and Lead-Out          : No
Fill up missing offset samples with silence : Yes
Delete leading and trailing silent blocks   : No
Null samples used in CRC calculations       : Yes
Used interface                              : Native Win32 interface for Win NT & 2000
Gap handling                                : Appended to previous track

Used output format              : User Defined Encoder
Selected bitrate                : 128 kBit/s
Quality                         : High
Add ID3 tag                     : No
Command line compressor         : C:\Program Files (x86)\FLAC Frontend\tools\flac.exe
Additional command line options : -8 -V -T "ARTIST=%artist%" -T "TITLE=%title%" -T "ALBUM=%albumtitle%" -T "DATE=%year%" -T "TRACKNUMBER=%tracknr%" -T "TOTALTRACKS=%numtracks%" -T "GENRE=%genre%" -T "ALBUMARTIST=%albumartist%" -T "ALBUM ARTIST=%albumartist%" -T "COMMENT=EAC Secure Mode, Test & Copy, AccurateRip, FLAC -8" %source%


TOC of the extracted CD

     Track |   Start  |  Length  | Start sector | End sector 
    ---------------------------------------------------------
        1  |  0:00.00 |  4:44.38 |         0    |    21337   
        2  |  4:44.38 |  6:36.74 |     21338    |    51111   
        3  | 11:21.37 |  5:09.73 |     51112    |    74359   
        4  | 16:31.35 |  6:57.17 |     74360    |   105651   
        5  | 23:28.52 |  4:04.05 |    105652    |   123956   
        6  | 27:32.57 |  4:23.65 |    123957    |   143746   
        7  | 31:56.47 |  6:35.53 |    143747    |   173424   
        8  | 38:32.25 |  8:53.37 |    173425    |   213436   


Track  1

     Filename D:\EAC Rips\Metallica - Ride The Lightning (1984) [FLAC] {BLCKND004R-1}\01 - Fight Fire With Fire.wav

     Pre-gap length  0:00:02.00

     Peak level 100.0 %
     Extraction speed 0.9 X
     Track quality 99.9 %
     Test CRC 79443EA7
     Copy CRC 79443EA7
     Cannot be verified as accurate (confidence 1)  [177CC8FC], AccurateRip returned [A6530A37]  (AR v2)
     Copy OK

Track  2

     Filename D:\EAC Rips\Metallica - Ride The Lightning (1984) [FLAC] {BLCKND004R-1}\02 - Ride The Lightning.wav

     Peak level 100.0 %
     Extraction speed 1.2 X
     Track quality 100.0 %
     Test CRC 4A33C386
     Copy CRC 4A33C386
     Cannot be verified as accurate (confidence 1)  [37DC4F5B], AccurateRip returned [0A24BC2C]  (AR v2)
     Copy OK

Track  3

     Filename D:\EAC Rips\Metallica - Ride The Lightning (1984) [FLAC] {BLCKND004R-1}\03 - For Whom The Bell Tolls.wav

     Peak level 100.0 %
     Extraction speed 1.4 X
     Track quality 100.0 %
     Test CRC 3363B49D
     Copy CRC 3363B49D
     Cannot be verified as accurate (confidence 1)  [BD9210F9], AccurateRip returned [0FBEFF2D]  (AR v2)
     Copy OK

Track  4

     Filename D:\EAC Rips\Metallica - Ride The Lightning (1984) [FLAC] {BLCKND004R-1}\04 - Fade To Black.wav

     Peak level 100.0 %
     Extraction speed 1.5 X
     Track quality 100.0 %
     Test CRC 6F23EB32
     Copy CRC 6F23EB32
     Cannot be verified as accurate (confidence 1)  [052038E4], AccurateRip returned [23BBA5BE]  (AR v2)
     Copy OK

Track  5

     Filename D:\EAC Rips\Metallica - Ride The Lightning (1984) [FLAC] {BLCKND004R-1}\05 - Trapped Under Ice.wav

     Peak level 100.0 %
     Extraction speed 1.6 X
     Track quality 100.0 %
     Test CRC 2B443DE4
     Copy CRC 2B443DE4
     Cannot be verified as accurate (confidence 1)  [ECD6271E], AccurateRip returned [B7D54E50]  (AR v2)
     Copy OK

Track  6

     Filename D:\EAC Rips\Metallica - Ride The Lightning (1984) [FLAC] {BLCKND004R-1}\06 - Escape.wav

     Peak level 100.0 %
     Extraction speed 1.7 X
     Track quality 100.0 %
     Test CRC 6543BC35
     Copy CRC 6543BC35
     Cannot be verified as accurate (confidence 1)  [FBE0B10C], AccurateRip returned [F7B32E52]  (AR v2)
     Copy OK

Track  7

     Filename D:\EAC Rips\Metallica - Ride The Lightning (1984) [FLAC] {BLCKND004R-1}\07 - Creeping Death.wav

     Peak level 100.0 %
     Extraction speed 1.7 X
     Track quality 99.9 %
     Test CRC 1330C4FA
     Copy CRC 1330C4FA
     Cannot be verified as accurate (confidence 1)  [6BAA2AE5], AccurateRip returned [49862F40]  (AR v2)
     Copy OK

Track  8

     Filename D:\EAC Rips\Metallica - Ride The Lightning (1984) [FLAC] {BLCKND004R-1}\08 - The Call Of Ktulu.wav

     Peak level 100.0 %
     Extraction speed 1.9 X
     Track quality 99.9 %
     Test CRC 003F75DB
     Copy CRC 003F75DB
     Cannot be verified as accurate (confidence 1)  [8BAD312A], AccurateRip returned [F502AA61]  (AR v2)
     Copy OK


No tracks could be verified as accurate
You may have a different pressing from the one(s) in the database

No errors occurred

End of status report

---- CUETools DB Plugin V2.1.6

[CTDB TOCID: Bgr9yrq2C_Dgzxe2B6WGmPvMYd0-] found
Submit result: Bgr9yrq2C_Dgzxe2B6WGmPvMYd0- has been confirmed
Track | CTDB Status
  1   | (1/1) Accurately ripped
  2   | (1/1) Accurately ripped
  3   | (1/1) Accurately ripped
  4   | (1/1) Accurately ripped
  5   | (1/1) Accurately ripped
  6   | (1/1) Accurately ripped
  7   | (1/1) Accurately ripped
  8   | (1/1) Accurately ripped


==== Log checksum A35A24E453348A9EF7C6301F7883C0A9A001A137CE01F592C26E2FE86D63439A ====



Create a new paste based on this one


Comments: