[ create a new paste ] login | about

Link: http://codepad.org/EHQEz1oc    [ raw code | fork ]

Plain Text, pasted on Sep 12:
Exact Audio Copy V1.5 from 20. February 2020

EAC extraction logfile from 6. August 2020, 4:16

Johnny Cash / I Walk the Line

Used drive  : ATAPI   iHOS104   Adapter: 1  ID: 0

Read mode               : Secure
Utilize accurate stream : Yes
Defeat audio cache      : Yes
Make use of C2 pointers : No

Read offset correction                      : 696
Overread into Lead-In and Lead-Out          : No
Fill up missing offset samples with silence : Yes
Delete leading and trailing silent blocks   : No
Null samples used in CRC calculations       : Yes
Used interface                              : Native Win32 interface for Win NT & 2000
Gap handling                                : Appended to previous track

Used output format              : User Defined Encoder
Selected bitrate                : 768 kBit/s
Quality                         : High
Add ID3 tag                     : No
Command line compressor         : C:\Program Files (x86)\Exact Audio Copy\FLAC\FLAC.EXE
Additional command line options : -6 -V -T "ARTIST=%artist%" -T "TITLE=%title%" -T "ALBUM=%albumtitle%" -T "DATE=%year%" -T "TRACKNUMBER=%tracknr%" -T "GENRE=%genre%" -T "COMMENT=%comment%" -T "BAND=%albuminterpret%" -T "ALBUMARTIST=%albuminterpret%" -T "COMPOSER=%composer%" %haslyrics%--tag-from-file=LYRICS="%lyricsfile%"%haslyrics% -T "DISCNUMBER=%cdnumber%" -T "TOTALDISCS=%totalcds%" -T "TOTALTRACKS=%numtracks%" %hascover%--picture="%coverfile%"%hascover% %source% -o %dest%


TOC of the extracted CD

     Track |   Start  |  Length  | Start sector | End sector 
    ---------------------------------------------------------
        1  |  0:00.00 |  2:38.16 |         0    |    11865   
        2  |  2:38.16 |  2:59.62 |     11866    |    25352   
        3  |  5:38.03 |  2:39.20 |     25353    |    37297   
        4  |  8:17.23 |  2:24.61 |     37298    |    48158   
        5  | 10:42.09 |  2:23.15 |     48159    |    58898   
        6  | 13:05.24 |  3:12.36 |     58899    |    73334   
        7  | 16:17.60 |  2:46.43 |     73335    |    85827   
        8  | 19:04.28 |  2:49.64 |     85828    |    98566   
        9  | 21:54.17 |  2:40.08 |     98567    |   110574   
       10  | 24:34.25 |  2:22.57 |    110575    |   121281   
       11  | 26:57.07 |  2:28.50 |    121282    |   132431   
       12  | 29:25.57 |  3:51.49 |    132432    |   149805   


Track  1

     Filename D:\Output\Johnny Cash\01 I Walk the Line.wav

     Pre-gap length  0:00:02.00

     Peak level 95.9 %
     Extraction speed 1.0 X
     Track quality 100.0 %
     Test CRC AA713567
     Copy CRC AA713567
     Track not present in AccurateRip database
     Copy OK

Track  2

     Filename D:\Output\Johnny Cash\02 Bad News.wav

     Pre-gap length  0:00:03.65

     Peak level 86.4 %
     Extraction speed 1.1 X
     Track quality 100.0 %
     Test CRC 79C8EF5B
     Copy CRC 79C8EF5B
     Track not present in AccurateRip database
     Copy OK

Track  3

     Filename D:\Output\Johnny Cash\03 Folsom Prison Blues.wav

     Pre-gap length  0:00:03.65

     Peak level 92.5 %
     Extraction speed 1.2 X
     Track quality 100.0 %
     Test CRC 33CA6680
     Copy CRC 33CA6680
     Track not present in AccurateRip database
     Copy OK

Track  4

     Filename D:\Output\Johnny Cash\04 Give My Love to Rose.wav

     Pre-gap length  0:00:03.65

     Peak level 92.6 %
     Extraction speed 1.3 X
     Track quality 100.0 %
     Test CRC A880D5A7
     Copy CRC A880D5A7
     Track not present in AccurateRip database
     Copy OK

Track  5

     Filename D:\Output\Johnny Cash\05 Hey Porter.wav

     Pre-gap length  0:00:03.65

     Peak level 93.7 %
     Extraction speed 1.3 X
     Track quality 100.0 %
     Test CRC FD10239E
     Copy CRC FD10239E
     Track not present in AccurateRip database
     Copy OK

Track  6

     Filename D:\Output\Johnny Cash\06 I Still Miss Someone.wav

     Pre-gap length  0:00:03.65

     Peak level 89.1 %
     Extraction speed 1.5 X
     Track quality 100.0 %
     Test CRC 8325B31F
     Copy CRC 8325B31F
     Track not present in AccurateRip database
     Copy OK

Track  7

     Filename D:\Output\Johnny Cash\07 Understand Your Man.wav

     Pre-gap length  0:00:03.65

     Peak level 78.6 %
     Extraction speed 1.5 X
     Track quality 100.0 %
     Test CRC 07BDEFBD
     Copy CRC 07BDEFBD
     Track not present in AccurateRip database
     Copy OK

Track  8

     Filename D:\Output\Johnny Cash\08 Wreck of the Old ’97.wav

     Pre-gap length  0:00:03.65

     Peak level 96.4 %
     Extraction speed 1.6 X
     Track quality 100.0 %
     Test CRC 391DBDDF
     Copy CRC 391DBDDF
     Track not present in AccurateRip database
     Copy OK

Track  9

     Filename D:\Output\Johnny Cash\09 Still in Town.wav

     Pre-gap length  0:00:03.65

     Peak level 73.7 %
     Extraction speed 1.6 X
     Track quality 100.0 %
     Test CRC A572BC4F
     Copy CRC A572BC4F
     Track not present in AccurateRip database
     Copy OK

Track 10

     Filename D:\Output\Johnny Cash\10 Big River.wav

     Pre-gap length  0:00:03.65

     Peak level 86.7 %
     Extraction speed 1.1 X
     Track quality 99.9 %
     Test CRC 560B846F
     Copy CRC 560B846F
     Track not present in AccurateRip database
     Copy OK

Track 11

     Filename D:\Output\Johnny Cash\11 Goodbye Little Darlin’ Goodbye.wav

     Pre-gap length  0:00:03.65

     Peak level 94.4 %
     Extraction speed 1.7 X
     Track quality 100.0 %
     Test CRC 9CD3F8AC
     Copy CRC 9CD3F8AC
     Track not present in AccurateRip database
     Copy OK

Track 12

     Filename D:\Output\Johnny Cash\12 Troublesome Waters.wav

     Pre-gap length  0:00:03.65

     Peak level 96.1 %
     Extraction speed 1.9 X
     Track quality 100.0 %
     Test CRC 3D2AF05F
     Copy CRC 3D2AF05F
     Track not present in AccurateRip database
     Copy OK


None of the tracks are present in the AccurateRip database

No errors occurred

End of status report

---- CUETools DB Plugin V2.1.6

[CTDB TOCID: q8t9Mx.vczL32jpeJcP7jaLkDmo-] found
Submit result: q8t9Mx.vczL32jpeJcP7jaLkDmo- has been confirmed
Track | CTDB Status
  1   | (4/4) Accurately ripped
  2   | (4/4) Accurately ripped
  3   | (4/4) Accurately ripped
  4   | (4/4) Accurately ripped
  5   | (4/4) Accurately ripped
  6   | (4/4) Accurately ripped
  7   | (4/4) Accurately ripped
  8   | (4/4) Accurately ripped
  9   | (4/4) Accurately ripped
 10   | (4/4) Accurately ripped
 11   | (4/4) Accurately ripped
 12   | (4/4) Accurately ripped


==== Log checksum 9618A00DBD056E2B5B5CFC45CC53CD571865A05C4506F758562B0CF8CD7794FB ====



Create a new paste based on this one


Comments: