[ create a new paste ] login | about

Link: http://codepad.org/ELTUJB3v    [ raw code | fork ]

Plain Text, pasted on Nov 2:
Exact Audio Copy V1.1 from 23. June 2015

EAC extraction logfile from 25. October 2016, 20:58

Lou Reed / Rock N Roll Animal

Used drive  : PLEXTOR BD-R  PX-B950SA   Adapter: 1  ID: 1

Read mode               : Secure
Utilize accurate stream : Yes
Defeat audio cache      : Yes
Make use of C2 pointers : No

Read offset correction                      : 6
Overread into Lead-In and Lead-Out          : No
Fill up missing offset samples with silence : Yes
Delete leading and trailing silent blocks   : No
Null samples used in CRC calculations       : Yes
Used interface                              : Native Win32 interface for Win NT & 2000

Used output format : Internal WAV Routines
Sample format      : 44.100 Hz; 16 Bit; Stereo


TOC of the extracted CD

     Track |   Start  |  Length  | Start sector | End sector 
    ---------------------------------------------------------
        1  |  0:00.00 |  8:03.01 |         0    |    36225   
        2  |  8:03.01 | 12:58.14 |     36226    |    94589   
        3  | 21:01.15 |  5:11.43 |     94590    |   117957   
        4  | 26:12.58 |  4:01.11 |    117958    |   136043   
        5  | 30:13.69 | 10:09.32 |    136044    |   181750   


Range status and errors

Selected range

     Filename C:\Lou Reed\2016 RCA & Arista Album Collection (17CD Box Set Sony Music)\1974 Rock N Roll Animal\Lou Reed - Rock N Roll Animal.wav

     Peak level 100.0 %
     Extraction speed 6.8 X
     Range quality 100.0 %
     Test CRC D3475B1D
     Copy CRC D3475B1D
     Copy OK

No errors occurred

 
AccurateRip summary
 
Track  1  not present in database
Track  2  not present in database
Track  3  not present in database
Track  4  not present in database
Track  5  not present in database
 
None of the tracks are present in the AccurateRip database

End of status report

---- CUETools DB Plugin V2.1.6

[CTDB TOCID: HbaOfLo1FX5MLOM5zLTnYZ7m4MQ-] found
Submit result: HbaOfLo1FX5MLOM5zLTnYZ7m4MQ- has been confirmed
Track | CTDB Status
  1   | (5/5) Accurately ripped
  2   | (5/5) Accurately ripped
  3   | (5/5) Accurately ripped
  4   | (5/5) Accurately ripped
  5   | (5/5) Accurately ripped


==== Log checksum 6EDEBAB701BAAE9EB7F8B61BDDFCB365C8CD1911BD34AA34C5469511CCC1317B ====



Create a new paste based on this one


Comments: