[ create a new paste ] login | about

Link: http://codepad.org/EM1UhKeL    [ raw code | fork ]

Plain Text, pasted on Aug 5:
Exact Audio Copy V0.99 prebeta 5 from 4. May 2009

Отчёт EAC об извлечении, выполненном 13. марта 2011, 21:25

Various / I Love Disco - Grand Prix 90's CD 1

Дисковод: Optiarc DVD RW AD-5200A   Adapter: 0  ID: 0

Режим чтения                 : Достоверность
Использование точного потока : Да
Отключение кэша аудио        : Да
Использование указателей C2  : Нет

Коррекция смещения при чтении                     : 48
Способность читать области Lead-in и Lead-out     : Нет
Заполнение пропущенных сэмплов тишиной            : Да
Удаление блоков с тишиной в начале и конце        : Нет
При вычислениях CRC использовались нулевые сэмплы : Да
Интерфейс                                         : Встроенный Win32-интерфейс для Win NT/2000

Выходной формат : Внутренние WAV-операции
Формат сэмплов  : 44.100 Гц; 16 бит; стерео


TOC извлечённого CD

     Трек |   Старт  | Длительность | Начальный сектор | Конечный сектор 
    ---------------------------------------------------------------------
       1  |  0:00.00 |    7:22.74   |           0      |      33223      
       2  |  7:22.74 |    5:50.74   |       33224      |      59547      
       3  | 13:13.73 |    5:01.24   |       59548      |      82146      
       4  | 18:15.22 |    7:01.74   |       82147      |     113795      
       5  | 25:17.21 |    6:29.29   |      113796      |     142999      
       6  | 31:46.50 |    6:14.60   |      143000      |     171109      
       7  | 38:01.35 |    4:53.12   |      171110      |     193096      
       8  | 42:54.47 |    5:24.15   |      193097      |     217411      
       9  | 48:18.62 |    5:57.74   |      217412      |     244260      
      10  | 54:16.61 |    5:27.38   |      244261      |     268823      
      11  | 59:44.24 |    6:00.74   |      268824      |     295897      
      12  | 65:45.23 |    6:10.00   |      295898      |     323647      


Характеристики диапазона извлечения и сообщения об ошибках

Выбранный диапазон

     Имя файла D:\All\Music\Various - I Love Disco - Grand Prix 90's\Various - I Love Disco - Grand Prix 90's CD 1\Various - I Love Disco - Grand Prix 90's CD 1.wav

     Пиковый уровень 96.8 %
     Качество диапазона 100.0 %
     CRC теста C1F4DE47
     CRC копии C1F4DE47
     Копирование... OK

Ошибок не произошло

 
AccurateRip: сводка
 
Трек  1  нет в базе данных
Трек  2  нет в базе данных
Трек  3  нет в базе данных
Трек  4  нет в базе данных
Трек  5  нет в базе данных
Трек  6  нет в базе данных
Трек  7  нет в базе данных
Трек  8  нет в базе данных
Трек  9  нет в базе данных
Трек 10  нет в базе данных
Трек 11  нет в базе данных
Трек 12  нет в базе данных
 
Ни одного трека нет в базе AccurateRip

Конец отчёта



Create a new paste based on this one


Comments: