[ create a new paste ] login | about

Link: http://codepad.org/ENLTmiDd    [ raw code | fork ]

Plain Text, pasted on Dec 19:
Exact Audio Copy V1.3 from 2. September 2016

EAC extraction logfile from 8. December 2018, 8:56

David Bowie / Serious Moonlight CD1

Used drive  : PLEXTOR BD-R  PX-B950SA   Adapter: 1  ID: 1

Read mode               : Secure
Utilize accurate stream : Yes
Defeat audio cache      : Yes
Make use of C2 pointers : No

Read offset correction                      : 6
Overread into Lead-In and Lead-Out          : No
Fill up missing offset samples with silence : Yes
Delete leading and trailing silent blocks   : No
Null samples used in CRC calculations       : Yes
Used interface                              : Native Win32 interface for Win NT & 2000

Used output format : Internal WAV Routines
Sample format      : 44.100 Hz; 16 Bit; Stereo


TOC of the extracted CD

     Track |   Start  |  Length  | Start sector | End sector 
    ---------------------------------------------------------
        1  |  0:00.00 |  3:07.43 |         0    |    14067   
        2  |  3:07.43 |  4:53.05 |     14068    |    36047   
        3  |  8:00.48 |  3:44.56 |     36048    |    52903   
        4  | 11:45.29 |  3:31.43 |     52904    |    68771   
        5  | 15:16.72 |  2:43.33 |     68772    |    81029   
        6  | 18:00.30 |  4:34.06 |     81030    |   101585   
        7  | 22:34.36 |  3:00.11 |    101586    |   115096   
        8  | 25:34.47 |  4:07.03 |    115097    |   133624   
        9  | 29:41.50 |  2:49.35 |    133625    |   146334   
       10  | 32:31.10 |  4:20.46 |    146335    |   165880   
       11  | 36:51.56 |  5:27.02 |    165881    |   190407   
       12  | 42:18.58 |  3:42.42 |    190408    |   207099   
       13  | 46:01.25 |  2:24.10 |    207100    |   217909   


Range status and errors

Selected range

     Filename C:\David Bowie\2018 Loving The Alien (11CD Box Set Parlophone Records)\1983 Serious Moonlight 2CD\CD1\David Bowie - Serious Moonlight CD1.wav

     Peak level 99.9 %
     Extraction speed 6.9 X
     Range quality 100.0 %
     Test CRC 3C3B2469
     Copy CRC 3C3B2469
     Copy OK

No errors occurred

 
AccurateRip summary
 
Track  1  accurately ripped (confidence 14)  [95537C01]  (AR v2)
Track  2  accurately ripped (confidence 14)  [056DD3F6]  (AR v2)
Track  3  accurately ripped (confidence 14)  [80A7FC82]  (AR v2)
Track  4  accurately ripped (confidence 14)  [6CF68E4F]  (AR v2)
Track  5  accurately ripped (confidence 14)  [10ED0219]  (AR v2)
Track  6  accurately ripped (confidence 14)  [2078448A]  (AR v2)
Track  7  accurately ripped (confidence 14)  [7900CF03]  (AR v2)
Track  8  accurately ripped (confidence 14)  [F29DAB8F]  (AR v2)
Track  9  accurately ripped (confidence 14)  [95B51EF0]  (AR v2)
Track 10  accurately ripped (confidence 14)  [97A8CC0C]  (AR v2)
Track 11  accurately ripped (confidence 14)  [BC44A599]  (AR v2)
Track 12  accurately ripped (confidence 14)  [A46941AA]  (AR v2)
Track 13  accurately ripped (confidence 14)  [B2096995]  (AR v2)
 
All tracks accurately ripped

End of status report

---- CUETools DB Plugin V2.1.6

[CTDB TOCID: dUB73dOFR0O9WpZgoulHKuMhQU0-] found
Submit result: dUB73dOFR0O9WpZgoulHKuMhQU0- has been confirmed
Track | CTDB Status
  1   | (66/66) Accurately ripped
  2   | (66/66) Accurately ripped
  3   | (66/66) Accurately ripped
  4   | (66/66) Accurately ripped
  5   | (66/66) Accurately ripped
  6   | (66/66) Accurately ripped
  7   | (66/66) Accurately ripped
  8   | (66/66) Accurately ripped
  9   | (66/66) Accurately ripped
 10   | (66/66) Accurately ripped
 11   | (66/66) Accurately ripped
 12   | (66/66) Accurately ripped
 13   | (66/66) Accurately ripped


==== Log checksum 0B61019D887A15288DFA5877BB43361B1F2AB4C58CE5511A006E18EA191161C6 ====



Create a new paste based on this one


Comments: