[ create a new paste ] login | about

Link: http://codepad.org/ENeRQBr1    [ raw code | fork ]

Plain Text, pasted on Jul 7:
Exact Audio Copy V0.99 prebeta 3 from 28. July 2007

EAC extraction logfile from 23. February 2008, 17:34

Various / The Late '50s (Disc 2)

Used drive  : _NEC    DVD_RW ND-3500AG   Adapter: 0  ID: 2

Read mode               : Secure
Utilize accurate stream : Yes
Defeat audio cache      : Yes
Make use of C2 pointers : No

Read offset correction                      : 48
Overread into Lead-In and Lead-Out          : No
Fill up missing offset samples with silence : Yes
Delete leading and trailing silent blocks   : No
Null samples used in CRC calculations       : Yes
Used interface                              : Installed external ASPI interface

Used output format : Internal WAV Routines
Sample format      : 44.100 Hz; 16 Bit; Stereo


TOC of the extracted CD

     Track |   Start  |  Length  | Start sector | End sector 
    ---------------------------------------------------------
        1  |  0:00.00 |  2:15.25 |         0    |    10149   
        2  |  2:15.25 |  2:04.12 |     10150    |    19461   
        3  |  4:19.37 |  3:03.70 |     19462    |    33256   
        4  |  7:23.32 |  2:22.08 |     33257    |    43914   
        5  |  9:45.40 |  2:29.10 |     43915    |    55099   
        6  | 12:14.50 |  2:33.52 |     55100    |    66626   
        7  | 14:48.27 |  2:17.38 |     66627    |    76939   
        8  | 17:05.65 |  2:18.52 |     76940    |    87341   
        9  | 19:24.42 |  2:02.33 |     87342    |    96524   
       10  | 21:27.00 |  2:16.00 |     96525    |   106724   
       11  | 23:43.00 |  2:45.37 |    106725    |   119136   
       12  | 26:28.37 |  2:29.43 |    119137    |   130354   
       13  | 28:58.05 |  2:39.40 |    130355    |   142319   
       14  | 31:37.45 |  2:14.67 |    142320    |   152436   
       15  | 33:52.37 |  2:13.68 |    152437    |   162479   
       16  | 36:06.30 |  3:38.45 |    162480    |   178874   
       17  | 39:45.00 |  2:51.05 |    178875    |   191704   
       18  | 42:36.05 |  2:20.70 |    191705    |   202274   
       19  | 44:57.00 |  2:20.37 |    202275    |   212811   


Range status and errors

Selected range

     Filename K:\Music\The Late '50s\Various - The Late '50s (Disc 2).wav

     Peak level 100.0 %
     Range quality 99.9 %
     Copy CRC 0FF3EBFA
     Copy OK

No errors occurred

End of status report



Create a new paste based on this one


Comments: