[ create a new paste ] login | about

Link: http://codepad.org/EOpOrWj4    [ raw code | fork ]

Plain Text, pasted on Apr 20:
Exact Audio Copy V1.3 from 2. September 2016

EAC extraction logfile from 19. April 2019, 16:06

Motley Crue / The Dirt Soundtrack

Used drive  : ASUS    DRW-24D5MT   Adapter: 1  ID: 0

Read mode               : Secure
Utilize accurate stream : Yes
Defeat audio cache      : Yes
Make use of C2 pointers : No

Read offset correction                      : 6
Overread into Lead-In and Lead-Out          : No
Fill up missing offset samples with silence : Yes
Delete leading and trailing silent blocks   : No
Null samples used in CRC calculations       : Yes
Used interface                              : Native Win32 interface for Win NT & 2000
Gap handling                                : Appended to previous track

Used output format              : User Defined Encoder
Selected bitrate                : 128 kBit/s
Quality                         : High
Add ID3 tag                     : No
Command line compressor         : C:\Program Files (x86)\Exact Audio Copy\Flac\flac.exe
Additional command line options : -V -8 -T "Genre=%genre%" -T "Artist=%artist%" -T "Title=%title%" -T "Album=%albumtitle%" -T "Date=%year%" -T "Tracknumber=%tracknr%" -T "Comment=%comment%" %source%


TOC of the extracted CD

     Track |   Start  |  Length  | Start sector | End sector 
    ---------------------------------------------------------
        1  |  0:00.00 |  3:52.32 |         0    |    17431   
        2  |  3:52.32 |  3:21.53 |     17432    |    32559   
        3  |  7:14.10 |  4:04.06 |     32560    |    50865   
        4  | 11:18.16 |  3:14.72 |     50866    |    65487   
        5  | 14:33.13 |  3:22.06 |     65488    |    80643   
        6  | 17:55.19 |  3:44.07 |     80644    |    97450   
        7  | 21:39.26 |  4:39.27 |     97451    |   118402   
        8  | 26:18.53 |  3:14.11 |    118403    |   132963   
        9  | 29:32.64 |  4:08.58 |    132964    |   151621   
       10  | 33:41.47 |  3:32.39 |    151622    |   167560   
       11  | 37:14.11 |  3:59.15 |    167561    |   185500   
       12  | 41:13.26 |  4:30.64 |    185501    |   205814   
       13  | 45:44.15 |  4:13.34 |    205815    |   224823   
       14  | 49:57.49 |  4:43.31 |    224824    |   246079   
       15  | 54:41.05 |  4:50.70 |    246080    |   267899   
       16  | 59:32.00 |  3:44.21 |    267900    |   284720   
       17  | 63:16.21 |  4:15.06 |    284721    |   303851   
       18  | 67:31.27 |  3:08.11 |    303852    |   317962   


Track  1

     Filename C:\Users\Alex\Desktop\Рипы\Новая папка (2)\01. The Dirt  (Est.1981) (feat. Machine Gun Kelly).wav

     Pre-gap length  0:00:02.00

     Peak level 82.4 %
     Extraction speed 4.8 X
     Track quality 100.0 %
     Test CRC 8DB25132
     Copy CRC 8DB25132
     Track not present in AccurateRip database
     Copy OK

Track  2

     Filename C:\Users\Alex\Desktop\Рипы\Новая папка (2)\02. Red Hot.wav

     Peak level 82.4 %
     Extraction speed 5.1 X
     Track quality 100.0 %
     Test CRC D7C2ED1E
     Copy CRC D7C2ED1E
     Track not present in AccurateRip database
     Copy OK

Track  3

     Filename C:\Users\Alex\Desktop\Рипы\Новая папка (2)\03. On With The Show.wav

     Peak level 81.7 %
     Extraction speed 5.6 X
     Track quality 100.0 %
     Test CRC C8CE7B33
     Copy CRC C8CE7B33
     Track not present in AccurateRip database
     Copy OK

Track  4

     Filename C:\Users\Alex\Desktop\Рипы\Новая папка (2)\04. Live Wire.wav

     Peak level 82.4 %
     Extraction speed 5.8 X
     Track quality 100.0 %
     Test CRC 210E64BD
     Copy CRC 210E64BD
     Track not present in AccurateRip database
     Copy OK

Track  5

     Filename C:\Users\Alex\Desktop\Рипы\Новая папка (2)\05. Merry-Go-Round.wav

     Peak level 79.6 %
     Extraction speed 6.1 X
     Track quality 100.0 %
     Test CRC 1E33A021
     Copy CRC 1E33A021
     Track not present in AccurateRip database
     Copy OK

Track  6

     Filename C:\Users\Alex\Desktop\Рипы\Новая папка (2)\06. Take Me To The Top.wav

     Peak level 82.4 %
     Extraction speed 5.7 X
     Track quality 99.9 %
     Test CRC 1F478DA4
     Copy CRC 1F478DA4
     Track not present in AccurateRip database
     Copy OK

Track  7

     Filename C:\Users\Alex\Desktop\Рипы\Новая папка (2)\07. Piece Of Your Action.wav

     Peak level 82.2 %
     Extraction speed 7.0 X
     Track quality 100.0 %
     Test CRC A800E3D8
     Copy CRC A800E3D8
     Track not present in AccurateRip database
     Copy OK

Track  8

     Filename C:\Users\Alex\Desktop\Рипы\Новая папка (2)\08. Shout At The Devil.wav

     Peak level 80.6 %
     Extraction speed 6.9 X
     Track quality 100.0 %
     Test CRC 1E1703FF
     Copy CRC 1E1703FF
     Track not present in AccurateRip database
     Copy OK

Track  9

     Filename C:\Users\Alex\Desktop\Рипы\Новая папка (2)\09. Looks That Kill.wav

     Peak level 82.4 %
     Extraction speed 7.5 X
     Track quality 100.0 %
     Test CRC 0B89FDA2
     Copy CRC 0B89FDA2
     Track not present in AccurateRip database
     Copy OK

Track 10

     Filename C:\Users\Alex\Desktop\Рипы\Новая папка (2)\10. Too Young To Fall In Love.wav

     Peak level 82.4 %
     Extraction speed 7.6 X
     Track quality 100.0 %
     Test CRC 4AA17021
     Copy CRC 4AA17021
     Track not present in AccurateRip database
     Copy OK

Track 11

     Filename C:\Users\Alex\Desktop\Рипы\Новая папка (2)\11. Home Sweet Home.wav

     Peak level 82.4 %
     Extraction speed 8.0 X
     Track quality 100.0 %
     Test CRC 0640F963
     Copy CRC 0640F963
     Track not present in AccurateRip database
     Copy OK

Track 12

     Filename C:\Users\Alex\Desktop\Рипы\Новая папка (2)\12. Girls, Girls, Girls.wav

     Peak level 80.6 %
     Extraction speed 8.4 X
     Track quality 100.0 %
     Test CRC 135CB78A
     Copy CRC 135CB78A
     Track not present in AccurateRip database
     Copy OK

Track 13

     Filename C:\Users\Alex\Desktop\Рипы\Новая папка (2)\13. Same Ol' Situation.wav

     Peak level 82.4 %
     Extraction speed 8.5 X
     Track quality 100.0 %
     Test CRC 78E77702
     Copy CRC 78E77702
     Track not present in AccurateRip database
     Copy OK

Track 14

     Filename C:\Users\Alex\Desktop\Рипы\Новая папка (2)\14. Kickstart My Heart.wav

     Peak level 82.4 %
     Extraction speed 8.9 X
     Track quality 100.0 %
     Test CRC D7974D37
     Copy CRC D7974D37
     Track not present in AccurateRip database
     Copy OK

Track 15

     Filename C:\Users\Alex\Desktop\Рипы\Новая папка (2)\15. Dr. Feelgood.wav

     Peak level 82.4 %
     Extraction speed 9.3 X
     Track quality 100.0 %
     Test CRC 4D854823
     Copy CRC 4D854823
     Track not present in AccurateRip database
     Copy OK

Track 16

     Filename C:\Users\Alex\Desktop\Рипы\Новая папка (2)\16. Ride With The Devil.wav

     Peak level 82.4 %
     Extraction speed 9.2 X
     Track quality 100.0 %
     Test CRC DC3C7718
     Copy CRC DC3C7718
     Track not present in AccurateRip database
     Copy OK

Track 17

     Filename C:\Users\Alex\Desktop\Рипы\Новая папка (2)\17. Crash and Burn.wav

     Peak level 82.4 %
     Extraction speed 9.5 X
     Track quality 100.0 %
     Test CRC E6F02AB8
     Copy CRC E6F02AB8
     Track not present in AccurateRip database
     Copy OK

Track 18

     Filename C:\Users\Alex\Desktop\Рипы\Новая папка (2)\18. Like a Virgin.wav

     Peak level 82.4 %
     Extraction speed 9.1 X
     Track quality 100.0 %
     Test CRC B2006495
     Copy CRC B2006495
     Track not present in AccurateRip database
     Copy OK


None of the tracks are present in the AccurateRip database

No errors occurred

End of status report

==== Log checksum 0986E8954938AFFEE86C89F302D9D9D08B1EA6E87128BDA554627D23370074FF ====



Create a new paste based on this one


Comments: