[ create a new paste ] login | about

Link: http://codepad.org/EWdfX7Cq    [ raw code | fork ]

Plain Text, pasted on Nov 23:
Exact Audio Copy V1.0 beta 1 from 15. November 2010

EAC extraction logfile from 7. February 2011, 19:47

Metallica / The Big 4 - Live From Sofia, Bulgaria (CD 4)

Used drive  : Optiarc DVD RW AD-7200S   Adapter: 4  ID: 0

Read mode               : Secure
Utilize accurate stream : Yes
Defeat audio cache      : Yes
Make use of C2 pointers : No

Read offset correction                      : 48
Overread into Lead-In and Lead-Out          : No
Fill up missing offset samples with silence : Yes
Delete leading and trailing silent blocks   : No
Null samples used in CRC calculations       : Yes
Used interface                              : Native Win32 interface for Win NT & 2000

Used output format : Internal WAV Routines
Sample format      : 44.100 Hz; 16 Bit; Stereo


TOC of the extracted CD

     Track |   Start  |  Length  | Start sector | End sector 
    ---------------------------------------------------------
        1  |  0:00.10 |  8:11.58 |        10    |    36892   
        2  |  8:11.68 |  4:29.56 |     36893    |    57123   
        3  | 12:41.49 |  4:15.50 |     57124    |    76298   
        4  | 16:57.24 |  6:18.07 |     76299    |   104655   
        5  | 23:15.31 |  7:31.72 |    104656    |   138552   
        6  | 30:47.28 |  6:53.43 |    138553    |   169570   
        7  | 37:40.71 |  7:16.02 |    169571    |   202272   
        8  | 44:56.73 |  6:33.50 |    202273    |   231797   
        9  | 51:30.48 |  6:14.50 |    231798    |   259897   
       10  | 57:45.23 |  7:50.24 |    259898    |   295171   


Range status and errors

Selected range

     Filename F:\Metallica - The Big 4 - Live From Sofia, Bulgaria (CD 4).wav

     Peak level 100.0 %
     Extraction speed 0.5 X
     Range quality 99.9 %
     Test CRC 7483674A
     Copy CRC 7483674A
     Copy OK

No errors occurred

 
AccurateRip summary
 
Track  1  accurately ripped (confidence 4)  [FD60F430]
Track  2  accurately ripped (confidence 4)  [DDA1030F]
Track  3  accurately ripped (confidence 4)  [75D9813A]
Track  4  accurately ripped (confidence 4)  [5F671705]
Track  5  accurately ripped (confidence 4)  [DB37375D]
Track  6  accurately ripped (confidence 4)  [9330A13B]
Track  7  accurately ripped (confidence 4)  [F9C4E40C]
Track  8  accurately ripped (confidence 4)  [DCDA5729]
Track  9  accurately ripped (confidence 4)  [EC560AC8]
Track 10  accurately ripped (confidence 4)  [07EDA78C]
 
All tracks accurately ripped

End of status report

==== Log checksum 83975AA07927DCEC2004D7B5C2088390833840B68A4E0F967DEDDA66E682FADC ====



Create a new paste based on this one


Comments: