[ create a new paste ] login | about

Link: http://codepad.org/EcTt0kII    [ raw code | fork ]

Plain Text, pasted on Nov 5:
Exact Audio Copy V1.0 beta 2 from 29. April 2011

Отчёт EAC об извлечении, выполненном 3. июля 2011, 18:43

Lionel Richie / The Definitive Collection (CD2)

Дисковод: TEAC    DV-W520GM   Adapter: 4  ID: 0

Режим чтения                 : Достоверность
Использование точного потока : Да
Отключение кэша аудио        : Да
Использование указателей C2  : Нет

Коррекция смещения при чтении                     : 6
Способность читать области Lead-in и Lead-out     : Нет
Заполнение пропущенных сэмплов тишиной            : Да
Удаление блоков с тишиной в начале и конце        : Нет
При вычислениях CRC использовались нулевые сэмплы : Да
Интерфейс                                         : Встроенный Win32-интерфейс для Win NT/2000

Выходной формат : Внутренние WAV-операции
Формат сэмплов  : 44.100 Гц; 16 бит; стерео


TOC извлечённого CD

     Трек |   Старт  | Длительность | Начальный сектор | Конечный сектор 
    ---------------------------------------------------------------------
       1  |  0:00.00 |    3:41.16   |           0      |      16590      
       2  |  3:41.16 |    4:15.44   |       16591      |      35759      
       3  |  7:56.60 |    4:27.16   |       35760      |      55800      
       4  | 12:24.01 |    4:10.02   |       55801      |      74552      
       5  | 16:34.03 |    3:44.45   |       74553      |      91397      
       6  | 20:18.48 |    4:03.57   |       91398      |     109679      
       7  | 24:22.30 |    3:12.12   |      109680      |     124091      
       8  | 27:34.42 |    4:07.70   |      124092      |     142686      
       9  | 31:42.37 |    3:20.45   |      142687      |     157731      
      10  | 35:03.07 |    3:35.14   |      157732      |     173870      
      11  | 38:38.21 |    3:28.25   |      173871      |     189495      
      12  | 42:06.46 |    3:47.04   |      189496      |     206524      
      13  | 45:53.50 |    3:01.44   |      206525      |     220143      
      14  | 48:55.19 |    4:02.40   |      220144      |     238333      
      15  | 52:57.59 |    3:49.17   |      238334      |     255525      
      16  | 56:47.01 |    2:40.25   |      255526      |     267550      
      17  | 59:27.26 |    3:34.25   |      267551      |     283625      
      18  | 63:01.51 |    3:31.23   |      283626      |     299473      
      19  | 66:32.74 |    3:53.53   |      299474      |     317001      
      20  | 70:26.52 |    4:21.14   |      317002      |     336590      


Характеристики диапазона извлечения и сообщения об ошибках

Выбранный диапазон

     Имя файла D:\CHANSON\Lionel Richie - 2003 - The Definitive Collection\CD2\Lionel Richie - The Definitive Collection (CD2).wav

     Пиковый уровень 100.0 %
     Скорость извлечения 6.8 X
     Качество диапазона 100.0 %
     CRC теста 047F9FEC
     CRC копии 047F9FEC
     Копирование... OK

Ошибок не произошло

 
AccurateRip: сводка
 
Трек  1  : извлечено точно (доверие 3)  [AB5F7441]  (AR v2)
Трек  2  : извлечено точно (доверие 3)  [ECB67D85]  (AR v2)
Трек  3  : извлечено точно (доверие 3)  [A3C35D95]  (AR v2)
Трек  4  : извлечено точно (доверие 3)  [6F7FEE6D]  (AR v2)
Трек  5  : извлечено точно (доверие 3)  [A277F277]  (AR v2)
Трек  6  : извлечено точно (доверие 3)  [103C069F]  (AR v2)
Трек  7  : извлечено точно (доверие 3)  [311731FF]  (AR v2)
Трек  8  : извлечено точно (доверие 3)  [E8D6AF94]  (AR v2)
Трек  9  : извлечено точно (доверие 3)  [F404C6EB]  (AR v2)
Трек 10  : извлечено точно (доверие 3)  [885E57C6]  (AR v2)
Трек 11  : извлечено точно (доверие 3)  [E964F37D]  (AR v2)
Трек 12  : извлечено точно (доверие 3)  [8D914848]  (AR v2)
Трек 13  : извлечено точно (доверие 3)  [9FAF31EF]  (AR v2)
Трек 14  : извлечено точно (доверие 3)  [E203BF50]  (AR v2)
Трек 15  : извлечено точно (доверие 3)  [8D9E0CA4]  (AR v2)
Трек 16  : извлечено точно (доверие 3)  [F529504E]  (AR v2)
Трек 17  : извлечено точно (доверие 3)  [EDC56B82]  (AR v2)
Трек 18  : извлечено точно (доверие 3)  [144C5B63]  (AR v2)
Трек 19  : извлечено точно (доверие 3)  [01E2ED97]  (AR v2)
Трек 20  : извлечено точно (доверие 3)  [417D6AC5]  (AR v2)
 
Все треки извлечены точно

Конец отчёта

==== Контрольная сумма отчёта 9D6F1E3C68211AB1DB873665347B52B757B2DB67337E3DEB5792FC53DAC63FB8 ====



Create a new paste based on this one


Comments: