[ create a new paste ] login | about

Link: http://codepad.org/EfULbhLg    [ raw code | fork ]

Plain Text, pasted on Feb 6:
CD-QUALITY
----------

foobar2000 1.6 / Dynamic Range Meter 1.1.1
log date: 2021-02-06 20:11:54

--------------------------------------------------------------------------------
Analyzed: Jerry Goldsmith / Poltergeist
--------------------------------------------------------------------------------

DR         Peak         RMS     Duration Track
--------------------------------------------------------------------------------
DR11      -6.50 dB   -22.28 dB      3:29 01-Carol Ann's Theme
DR16      -1.22 dB   -23.81 dB      7:27 02-Night Visitor
DR14      -0.05 dB   -20.48 dB      6:18 03-Escape From Suburbia
DR11      -6.53 dB   -24.19 dB      2:04 04-The Light
DR13      -2.53 dB   -21.95 dB      2:13 05-The Neighborhood / Day
DR14      -0.18 dB   -18.30 dB      2:17 06-Night Of The Beast
DR14      -0.62 dB   -20.87 dB      6:14 07-Twisted Abduction
DR14       0.00 dB   -19.71 dB      8:17 08-Rebirth
--------------------------------------------------------------------------------

Number of tracks:  8
Official DR value: DR14

Samplerate:        44100 Hz
Channels:          2
Bits per sample:   16
Bitrate:           698 kbps
Codec:             FLAC
================================================================================



HI-RES
------

foobar2000 1.6 / Dynamic Range Meter 1.1.1
log date: 2021-02-06 20:12:05

--------------------------------------------------------------------------------
Analyzed: Jerry Goldsmith / Poltergeist
--------------------------------------------------------------------------------

DR         Peak         RMS     Duration Track
--------------------------------------------------------------------------------
DR11      -6.48 dB   -22.28 dB      3:29 01-Carol Ann's Theme
DR16      -1.21 dB   -23.81 dB      7:27 02-Night Visitor
DR14      -0.05 dB   -20.47 dB      6:18 03-Escape From Suburbia
DR11      -6.53 dB   -24.18 dB      2:04 04-The Light
DR13      -2.44 dB   -21.95 dB      2:13 05-The Neighborhood / Day
DR14      -0.05 dB   -18.30 dB      2:17 06-Night Of The Beast
DR14      -0.62 dB   -20.87 dB      6:14 07-Twisted Abduction
DR15      -0.05 dB   -19.71 dB      8:17 08-Rebirth
--------------------------------------------------------------------------------

Number of tracks:  8
Official DR value: DR14

Samplerate:        96000 Hz
Channels:          2
Bits per sample:   24
Bitrate:           2778 kbps
Codec:             FLAC
================================================================================




Create a new paste based on this one


Comments: