[ create a new paste ] login | about

Link: http://codepad.org/EkTC6leA    [ raw code | fork ]

Plain Text, pasted on Dec 14:
Exact Audio Copy V1.0 beta 1 from 15. November 2010

EAC extraction logfile from 14. August 2011, 17:36

Cliff Richard / The Hits: Number Ones: Around The World

Used drive  : ATAPI   iHAP122   W   Adapter: 1  ID: 0

Read mode               : Secure
Utilize accurate stream : Yes
Defeat audio cache      : Yes
Make use of C2 pointers : No

Read offset correction                      : 24
Overread into Lead-In and Lead-Out          : Yes
Fill up missing offset samples with silence : Yes
Delete leading and trailing silent blocks   : No
Null samples used in CRC calculations       : Yes
Used interface                              : Native Win32 interface for Win NT & 2000

Used output format : Internal WAV Routines
Sample format      : 44.100 Hz; 16 Bit; Stereo


TOC of the extracted CD

     Track |   Start  |  Length  | Start sector | End sector 
    ---------------------------------------------------------
        1  |  0:00.00 |  2:37.14 |         0    |    11788   
        2  |  2:37.14 |  2:35.73 |     11789    |    23486   
        3  |  5:13.12 |  2:58.23 |     23487    |    36859   
        4  |  8:11.35 |  2:02.12 |     36860    |    46021   
        5  | 10:13.47 |  2:05.17 |     46022    |    55413   
        6  | 12:18.64 |  2:23.46 |     55414    |    66184   
        7  | 14:42.35 |  3:10.14 |     66185    |    80448   
        8  | 17:52.49 |  1:54.60 |     80449    |    89058   
        9  | 19:47.34 |  2:55.46 |     89059    |   102229   
       10  | 22:43.05 |  2:00.69 |    102230    |   111298   
       11  | 24:43.74 |  2:15.39 |    111299    |   121462   
       12  | 26:59.38 |  2:43.00 |    121463    |   133687   
       13  | 29:42.38 |  3:11.14 |    133688    |   148026   
       14  | 32:53.52 |  2:37.30 |    148027    |   159831   
       15  | 35:31.07 |  2:19.30 |    159832    |   170286   
       16  | 37:50.37 |  2:31.31 |    170287    |   181642   
       17  | 40:21.68 |  3:00.61 |    181643    |   195203   
       18  | 43:22.54 |  3:33.61 |    195204    |   211239   
       19  | 46:56.40 |  4:13.31 |    211240    |   230245   
       20  | 51:09.71 |  4:17.32 |    230246    |   249552   
       21  | 55:27.28 |  4:03.73 |    249553    |   267850   
       22  | 59:31.26 |  4:51.44 |    267851    |   289719   
       23  | 64:22.70 |  4:39.26 |    289720    |   310670   


Range status and errors

Selected range

     Filename C:\MusicBox\Cliff Richard - The Hits- Number Ones- Around The World.wav

     Peak level 98.8 %
     Extraction speed 0.6 X
     Range quality 100.0 %
     Copy CRC 92C8110C
     Copy OK

No errors occurred

 
AccurateRip summary
 
Track  1  not present in database
Track  2  not present in database
Track  3  not present in database
Track  4  not present in database
Track  5  not present in database
Track  6  not present in database
Track  7  not present in database
Track  8  not present in database
Track  9  not present in database
Track 10  not present in database
Track 11  not present in database
Track 12  not present in database
Track 13  not present in database
Track 14  not present in database
Track 15  not present in database
Track 16  not present in database
Track 17  not present in database
Track 18  not present in database
Track 19  not present in database
Track 20  not present in database
Track 21  not present in database
Track 22  not present in database
Track 23  not present in database
 
None of the tracks are present in the AccurateRip database

End of status report



Create a new paste based on this one


Comments: