[ create a new paste ] login | about

Link: http://codepad.org/El1mD5KN    [ raw code | fork ]

Plain Text, pasted on Aug 28:
foobar2000 1.2.8 / Dynamic Range Meter 1.1.1
log date: 2013-12-30 12:07:38

--------------------------------------------------------------------------------
Analyzed: Quincy Jones featuring Benard Ighner / Ultimate Collection (Hybrid SACD) (1)
          Quincy Jones featuring Dune & Charles May / Ultimate Collection (Hybrid SACD) (2)
          Quincy Jones featuring El DeBarge, James Ingram, Al B. Sure! & Barry White / Ultimate Collection (Hybrid SACD) (3)
          Quincy Jones featuring James Ingram / Ultimate Collection (Hybrid SACD) (4-5)
          Quincy Jones featuring Leon Ware & Bruce Fisher / Ultimate Collection (Hybrid SACD) (6)
          Quincy Jones featuring Minnie Riperton, Leon Ware & Al Jarreau / Ultimate Collection (Hybrid SACD) (7)
          Quincy Jones featuring Nickolas Ashford, Valerie Simpson & Chaka Khan / Ultimate Collection (Hybrid SACD) (8)
          Quincy Jones featuring Patti Austin / Ultimate Collection (Hybrid SACD) (9-10)
          Quincy Jones featuring Paulette McWilliams / Ultimate Collection (Hybrid SACD) (11)
          Quincy Jones featuring Ray Charles & Chaka Khan / Ultimate Collection (Hybrid SACD) (12)
          Quincy Jones featuring Siedah Garrett & El DeBarge / Ultimate Collection (Hybrid SACD) (13)
          Quincy Jones featuring Tamia / Ultimate Collection (Hybrid SACD) (14)
          Quincy Jones featuring Tevin Campbell / Ultimate Collection (Hybrid SACD) (15-16)
          Quincy Jones featuring The Brothers Johnson / Ultimate Collection (Hybrid SACD) (17)
--------------------------------------------------------------------------------

DR         Peak         RMS     Duration Track
--------------------------------------------------------------------------------
DR12      -5.14 dB   -21.37 dB      6:01 02-Everything Must Change
DR14      -3.37 dB   -19.84 dB      4:21 07-Ai No Corrida (Single Version)
DR12      -5.69 dB   -21.83 dB      6:42 13-The Secret Garden (Sweet Seduction Suite)
DR12      -6.50 dB   -21.87 dB      4:34 09-Just Once
DR12      -6.57 dB   -20.44 dB      4:21 11-One Hundred Ways
DR12      -5.29 dB   -19.65 dB      3:59 03-Body Heat
DR11      -5.76 dB   -20.60 dB      3:38 01-If I Ever Lose This Heaven (Single Version)
DR14      -3.01 dB   -20.08 dB      3:08 06-Stuff Like That (Single Version)
DR15      -2.41 dB   -19.59 dB      4:11 08-Razzamatazz (Single Version)
DR14      -4.95 dB   -21.50 dB      3:35 10-Betcha' Wouldn't Hurt Me
DR14      -4.45 dB   -21.43 dB      3:29 05-Mellow Madness
DR13      -5.02 dB   -20.23 dB      4:56 12-I'll Be Good To You
DR13      -5.92 dB   -21.88 dB      4:15 16-I'm Yours
DR14      -3.09 dB   -21.20 dB      6:14 15-You Put A Move On My Heart
DR13      -5.06 dB   -20.33 dB      4:53 14-Tomorrow (A Better You, Better Me)
DR13      -5.21 dB   -21.25 dB      4:08 17-Everything
DR13      -5.52 dB   -19.57 dB      3:18 04-Is It Love That We're Missin' (Single Version)
--------------------------------------------------------------------------------

Number of tracks:  17
Official DR value: DR13

Samplerate:        88200 Hz
Channels:          2
Bits per sample:   24
Bitrate:           2617 kbps
Codec:             FLAC
================================================================================




Create a new paste based on this one


Comments: