[ create a new paste ] login | about

Link: http://codepad.org/Em0Xhn7p    [ raw code | fork ]

Plain Text, pasted on Apr 20:
foobar2000 1.3.17 / Dynamic Range Meter 1.1.1
log date: 2018-04-19 12:45:04

--------------------------------------------------------------------------------
Analyzed: Isao Tomita / The Tale of Genji, Symphonic Fantasy Ultimate Edition
--------------------------------------------------------------------------------

DR         Peak         RMS     Duration Track
--------------------------------------------------------------------------------
DR13     -12.37 dB   -31.89 dB      7:34 01-The Tale of Genji -14
DR10     -16.54 dB   -32.36 dB      1:31 02-The Tale of Genji -15
DR11     -14.50 dB   -32.44 dB      2:10 03-The Tale of Genji -16
DR12      -5.90 dB   -28.82 dB      5:19 04-The Tale of Genji -17
DR10     -15.72 dB   -32.75 dB      2:35 05-The Tale of Genji -18
DR12      -6.86 dB   -29.66 dB      9:55 06-The Tale of Genji -19
DR10     -19.04 dB   -33.32 dB      1:04 07-The Tale of Genji -20
DR12      -7.30 dB   -27.83 dB      6:07 08-The Tale of Genji -21
DR12      -7.01 dB   -28.45 dB      3:03 09-The Tale of Genji -22
--------------------------------------------------------------------------------

Number of tracks:  9
Official DR value: DR11

Samplerate:        2822400 Hz / PCM Samplerate: 176400 Hz
Channels:          6
Bits per sample:   1
Bitrate:           16934 kbps
Codec:             DST64
================================================================================

--------------------------------------------------------------------------------
Analyzed: Isao Tomita / The Tale of Genji, Symphonic Fantasy Ultimate Edition
--------------------------------------------------------------------------------

DR         Peak         RMS     Duration Track
--------------------------------------------------------------------------------
DR16      -6.33 dB   -27.39 dB      7:34 01-The Tale of Genji -14
DR12     -14.81 dB   -30.11 dB      1:31 02-The Tale of Genji -15
DR15     -11.60 dB   -29.85 dB      2:10 03-The Tale of Genji -16
DR13      -6.03 dB   -24.61 dB      5:19 04-The Tale of Genji -17
DR12     -11.19 dB   -28.08 dB      2:35 05-The Tale of Genji -18
DR14      -5.70 dB   -24.72 dB      9:55 06-The Tale of Genji -19
DR13     -15.57 dB   -31.38 dB      1:04 07-The Tale of Genji -20
DR13      -6.75 dB   -24.32 dB      6:07 08-The Tale of Genji -21
DR13      -6.94 dB   -25.16 dB      3:03 09-The Tale of Genji -22
--------------------------------------------------------------------------------

Number of tracks:  9
Official DR value: DR13

Samplerate:        2822400 Hz / PCM Samplerate: 176400 Hz
Channels:          2
Bits per sample:   1
Bitrate:           5645 kbps
Codec:             DSD64
================================================================================




Create a new paste based on this one


Comments: