[ create a new paste ] login | about

Link: http://codepad.org/EonftQ7D    [ raw code | fork ]

Plain Text, pasted on Nov 23:
foobar2000 1.3.10 / Dynamic Range Meter 1.1.1
log date: 2016-11-22 05:31:09

--------------------------------------------------------------------------------
Analyzed: King Crimson / Beat (2016 Mix 5.1 Surround 24-96)
--------------------------------------------------------------------------------

DR         Peak         RMS     Duration Track
--------------------------------------------------------------------------------
DR11      -0.29 dB   -16.00 dB      4:26 01-Neal And Jack And Me
DR13      -0.12 dB   -16.44 dB      3:51 02-Heartbeat
DR13      -0.26 dB   -17.50 dB      3:35 03-Sartori In Tangier
DR12      -0.31 dB   -15.45 dB      4:27 04-Waiting Man
DR12      -0.31 dB   -15.30 dB      4:50 05-Neurotica
DR11      -2.43 dB   -19.03 dB      3:23 06-Two Hands
DR12      -0.12 dB   -15.90 dB      4:13 07-The Howler
DR12      -0.12 dB   -18.93 dB     12:12 08-Requiem (Extended Version)
DR14      -0.12 dB   -16.54 dB      4:13 09-Absent Lovers (Instrumental / Studio Recording) / Bonus
--------------------------------------------------------------------------------

Number of tracks:  9
Official DR value: DR12

Samplerate:        96000 Hz
Channels:          6
Bits per sample:   24
Bitrate:           6426 kbps
Codec:             FLAC
================================================================================



foobar2000 1.3.10 / Dynamic Range Meter 1.1.1
log date: 2016-11-22 17:04:04

--------------------------------------------------------------------------------
Analyzed: King Crimson / Beat (2016 Mix Stereo 24-96)
--------------------------------------------------------------------------------

DR         Peak         RMS     Duration Track
--------------------------------------------------------------------------------
DR9       -0.29 dB   -12.12 dB      4:26 01-Neal And Jack And Me
DR11      -0.08 dB   -13.22 dB      3:51 02-Heartbeat
DR10       0.00 dB   -12.18 dB      3:35 03-Sartori In Tangier
DR9       -0.15 dB   -11.25 dB      4:27 04-Waiting Man
DR10      -0.26 dB   -12.07 dB      4:50 05-Neurotica
DR11      -2.50 dB   -16.02 dB      3:23 06-Two Hands
DR9       -0.24 dB   -11.56 dB      4:13 07-The Howler
DR12       0.00 dB   -17.05 dB     12:12 08-Requiem (Extended Version)
DR10      -0.02 dB   -11.08 dB      4:13 09-Absent Lovers (Instrumental / Studio Recording) / Bonus
--------------------------------------------------------------------------------

Number of tracks:  9
Official DR value: DR10

Samplerate:        96000 Hz
Channels:          2
Bits per sample:   24
Bitrate:           2758 kbps
Codec:             FLAC
================================================================================




foobar2000 1.3.10 / Dynamic Range Meter 1.1.1
log date: 2016-11-22 17:06:08

--------------------------------------------------------------------------------
Analyzed: King Crimson / Beat (Alternate Album Stereo 24-96)
--------------------------------------------------------------------------------

DR         Peak         RMS     Duration Track
--------------------------------------------------------------------------------
DR10      -0.60 dB   -13.27 dB      4:24 01-Neal And Jack And Me
DR10      -0.28 dB   -12.99 dB      3:55 02-Heartbeat
DR10      -0.58 dB   -13.49 dB      3:33 03-Sartori In Tangier
DR9       -0.92 dB   -11.78 dB      4:23 04-Waiting Man
DR9       -0.70 dB   -12.56 dB      4:18 05-Neurotica
DR10      -1.30 dB   -14.30 dB      3:24 06-Two Hands
DR12      -0.29 dB   -14.44 dB      3:48 07-The Howler
DR8       -0.36 dB   -12.86 dB      6:39 08-Requiem
DR9       -0.51 dB   -12.68 dB      6:16 09-Neal And Jack And Me (Alternate Take) / Bonus
DR6       -0.60 dB    -8.09 dB      4:58 10-Absent Lovers (Live) / Bonus
--------------------------------------------------------------------------------

Number of tracks:  10
Official DR value: DR9

Samplerate:        96000 Hz
Channels:          2
Bits per sample:   24
Bitrate:           2109 kbps
Codec:             FLAC
================================================================================




foobar2000 1.3.10 / Dynamic Range Meter 1.1.1
log date: 2016-11-22 17:11:28

--------------------------------------------------------------------------------
Analyzed: King Crimson / Beat (Original Mix Stereo 24-96)
--------------------------------------------------------------------------------

DR         Peak         RMS     Duration Track
--------------------------------------------------------------------------------
DR10      -0.12 dB   -12.90 dB      4:24 01-Neal And Jack And Me
DR11      -0.12 dB   -13.09 dB      3:55 02-Heartbeat
DR11      -0.12 dB   -13.78 dB      3:35 03-Sartori In Tangier
DR9       -0.12 dB   -11.42 dB      4:25 04-Waiting Man
DR11      -0.12 dB   -13.62 dB      4:50 05-Neurotica
DR11      -1.65 dB   -14.60 dB      3:24 06-Two Hands
DR11      -0.13 dB   -13.97 dB      4:12 07-The Howler
DR10      -0.12 dB   -14.71 dB      6:38 08-Requiem
--------------------------------------------------------------------------------

Number of tracks:  8
Official DR value: DR11

Samplerate:        96000 Hz
Channels:          2
Bits per sample:   24
Bitrate:           2625 kbps
Codec:             FLAC
================================================================================




Create a new paste based on this one


Comments: