[ create a new paste ] login | about

Link: http://codepad.org/F6jxhvAP    [ raw code | fork ]

Plain Text, pasted on Aug 26:
foobar2000 1.4.6 / Dynamic Range Meter 1.1.1
log date: 2019-08-26 15:28:33

--------------------------------------------------------------------------------
Analyzed: New Philharmonia Orchestra - Rafael Fruhbeck de Burgos, conductor / Albeniz: Suite Espanola
--------------------------------------------------------------------------------

DR         Peak         RMS     Duration Track
--------------------------------------------------------------------------------
DR12      -3.10 dB   -19.25 dB      2:37 01-Castilla (Seguidillas)
DR14      -0.01 dB   -19.74 dB      6:32 02-Asturias (Leyenda)
DR13      -1.28 dB   -18.50 dB      5:12 03-Aragon (Fantasia)
DR11      -4.66 dB   -20.93 dB      4:58 04-Cadiz (Cancion)
DR12      -0.03 dB   -18.29 dB      4:21 05-Sevilla (Sevillanas)
DR11      -1.75 dB   -19.40 dB      5:42 06-Granada (Serenata)
DR13      -0.32 dB   -19.16 dB      3:07 07-Cantaluna (Corranda)
DR12      -0.04 dB   -18.93 dB      5:36 08-Cordoba
--------------------------------------------------------------------------------

Number of tracks:  8
Official DR value: DR12

Samplerate:        88200 Hz
Channels:          2
Bits per sample:   24
Bitrate:           2356 kbps
Codec:             FLAC
================================================================================




Create a new paste based on this one


Comments: