[ create a new paste ] login | about

Link: http://codepad.org/F7uGu9HK    [ raw code | fork ]

Plain Text, pasted on Aug 26:
=================================================
foobar2000 1.4 / Dynamic Range Meter 1.1.1
log date: 2019-07-25 21:53:44
-------------------------------------------------------------------------------
Analyzed: New Philharmonia Orchestra - Rafael Fruhbeck de Burgos, 
conductor / Albeniz: Suite Espanola
-------------------------------------------------------------------------------
DR           Peak          RMS     Duration        Track
-------------------------------------------------------------------------------
DR12   -7.35 dB   -23.50 dB   2:35   01-Castilla (Seguidillas)
DR14   -4.68 dB   -23.89 dB   6:32   02-Asturias (Leyenda)
DR13   -5.39 dB   -22.83 dB   5:12   03-Aragon (Fantasia)
DR12   -8.84 dB   -24.85 dB   4:58   04-Cadiz (Cancion)
DR13   -3.97 dB   -22.66 dB   4:21   05-Sevilla (Sevillanas)
DR11   -6.04 dB   -23.61 dB   5:42   06-Granada (Serenata)
DR14   -4.80 dB   -23.42 dB   3:07   07-Cantaluna (Corranda)
DR13   -4.58 dB   -23.21 dB   5:36   08-Cordoba
-------------------------------------------------------------------------------
Number of tracks: 8
Official DR value: DR13

Samplerate: 2822400 Hz / PCM Samplerate: 176400 Hz
Channels: 2
Bits per sample: 1
Bitrate: 5645 kbps
Codec: DSD64
=================================================




Create a new paste based on this one


Comments: