[ create a new paste ] login | about

Link: http://codepad.org/FBAT1hAg    [ raw code | fork ]

Plain Text, pasted on Dec 14:
CD1
:::

Exact Audio Copy V1.0 beta 1 from 15. November 2010

EAC extraction logfile from 7. February 2011, 18:27

Anthrax / The Big 4 - Live From Sofia, Bulgaria (CD 1)

Used drive  : Optiarc DVD RW AD-7200S   Adapter: 4  ID: 0

Read mode               : Secure
Utilize accurate stream : Yes
Defeat audio cache      : Yes
Make use of C2 pointers : No

Read offset correction                      : 48
Overread into Lead-In and Lead-Out          : No
Fill up missing offset samples with silence : Yes
Delete leading and trailing silent blocks   : No
Null samples used in CRC calculations       : Yes
Used interface                              : Native Win32 interface for Win NT & 2000

Used output format : Internal WAV Routines
Sample format      : 44.100 Hz; 16 Bit; Stereo


TOC of the extracted CD

     Track |   Start  |  Length  | Start sector | End sector 
    ---------------------------------------------------------
        1  |  0:00.10 |  6:04.08 |        10    |    27317   
        2  |  6:04.18 |  3:42.40 |     27318    |    44007   
        3  |  9:46.58 |  4:24.44 |     44008    |    63851   
        4  | 14:11.27 |  8:00.69 |     63852    |    99920   
        5  | 22:12.21 |  6:37.04 |     99921    |   129699   
        6  | 28:49.25 | 10:10.31 |    129700    |   175480   
        7  | 38:59.56 |  5:53.10 |    175481    |   201965   
        8  | 44:52.66 |  6:46.20 |    201966    |   232435   
        9  | 51:39.11 |  3:27.08 |    232436    |   247968   
       10  | 55:06.19 |  8:14.25 |    247969    |   285043   


Range status and errors

Selected range

     Filename F:\Anthrax - The Big 4 - Live From Sofia, Bulgaria (CD 1).wav

     Peak level 100.0 %
     Extraction speed 0.5 X
     Range quality 100.0 %
     Test CRC 1A4E0FC8
     Copy CRC 1A4E0FC8
     Copy OK

No errors occurred

 
AccurateRip summary
 
Track  1  accurately ripped (confidence 3)  [81C8C1DE]
Track  2  accurately ripped (confidence 3)  [85743E8E]
Track  3  accurately ripped (confidence 3)  [217AE150]
Track  4  accurately ripped (confidence 3)  [A9A15759]
Track  5  accurately ripped (confidence 3)  [BA73188B]
Track  6  accurately ripped (confidence 3)  [063EE15E]
Track  7  accurately ripped (confidence 3)  [4CDFB448]
Track  8  accurately ripped (confidence 3)  [249BDD1D]
Track  9  accurately ripped (confidence 3)  [C32A0258]
Track 10  accurately ripped (confidence 3)  [747D96AE]
 
All tracks accurately ripped

End of status report

==== Log checksum 835EB887B1533877FEB7F41C102E497A7E88D0E31974E813E0F0E5C8288949F9 ====


CD2
:::

Exact Audio Copy V1.0 beta 1 from 15. November 2010

EAC extraction logfile from 6. February 2011, 23:06

Megadeth / The Big 4 - Live From Sofia, Bulgaria (CD 2)

Used drive  : Optiarc DVD RW AD-7200S   Adapter: 4  ID: 0

Read mode               : Secure
Utilize accurate stream : Yes
Defeat audio cache      : Yes
Make use of C2 pointers : No

Read offset correction                      : 48
Overread into Lead-In and Lead-Out          : No
Fill up missing offset samples with silence : Yes
Delete leading and trailing silent blocks   : No
Null samples used in CRC calculations       : Yes
Used interface                              : Native Win32 interface for Win NT & 2000

Used output format : Internal WAV Routines
Sample format      : 44.100 Hz; 16 Bit; Stereo


TOC of the extracted CD

     Track |   Start  |  Length  | Start sector | End sector 
    ---------------------------------------------------------
        1  |  0:00.10 |  6:33.25 |        10    |    29509   
        2  |  6:33.35 |  5:04.08 |     29510    |    52317   
        3  | 11:37.43 |  3:44.48 |     52318    |    69165   
        4  | 15:22.16 |  3:18.32 |     69166    |    84047   
        5  | 18:40.48 |  5:26.38 |     84048    |   108535   
        6  | 24:07.11 |  3:14.03 |    108536    |   123088   
        7  | 27:21.14 |  4:28.36 |    123089    |   143224   
        8  | 31:49.50 |  4:39.29 |    143225    |   164178   
        9  | 36:29.04 |  5:04.43 |    164179    |   187021   
       10  | 41:33.47 |  4:50.69 |    187022    |   208840   
       11  | 46:24.41 |  4:15.46 |    208841    |   228011   
       12  | 50:40.12 | 10:22.39 |    228012    |   274700   


Range status and errors

Selected range

     Filename F:\Megadeth - The Big 4 - Live From Sofia, Bulgaria (CD 2).wav

     Peak level 99.9 %
     Extraction speed 0.6 X
     Range quality 99.9 %
     Test CRC F9BCAA26
     Copy CRC F9BCAA26
     Copy OK

No errors occurred

 
AccurateRip summary
 
Track  1  accurately ripped (confidence 4)  [8E5B6FA0]
Track  2  accurately ripped (confidence 4)  [AF34083A]
Track  3  accurately ripped (confidence 4)  [82556303]
Track  4  accurately ripped (confidence 4)  [00EB4002]
Track  5  accurately ripped (confidence 4)  [ADACAEC8]
Track  6  accurately ripped (confidence 4)  [EDE8DB1D]
Track  7  accurately ripped (confidence 4)  [2B543457]
Track  8  accurately ripped (confidence 4)  [3916F2CA]
Track  9  accurately ripped (confidence 4)  [4E095682]
Track 10  accurately ripped (confidence 4)  [510FED48]
Track 11  accurately ripped (confidence 4)  [A726CC9E]
Track 12  accurately ripped (confidence 4)  [067AE970]
 
All tracks accurately ripped

End of status report

==== Log checksum 291E4066C4C2509EDA7613B54BC56E72B61F544C15D5DF5B5CF83EEE51B6C024 ====


CD3
:::

Exact Audio Copy V1.0 beta 1 from 15. November 2010

EAC extraction logfile from 7. February 2011, 19:02

Slayer / The Big 4 - Live From Sofia, Bulgaria (CD 3)

Used drive  : Optiarc DVD RW AD-7200S   Adapter: 4  ID: 0

Read mode               : Secure
Utilize accurate stream : Yes
Defeat audio cache      : Yes
Make use of C2 pointers : No

Read offset correction                      : 48
Overread into Lead-In and Lead-Out          : No
Fill up missing offset samples with silence : Yes
Delete leading and trailing silent blocks   : No
Null samples used in CRC calculations       : Yes
Used interface                              : Native Win32 interface for Win NT & 2000

Used output format : Internal WAV Routines
Sample format      : 44.100 Hz; 16 Bit; Stereo


TOC of the extracted CD

     Track |   Start  |  Length  | Start sector | End sector 
    ---------------------------------------------------------
        1  |  0:00.10 |  6:26.19 |        10    |    28978   
        2  |  6:26.29 |  4:31.43 |     28979    |    49346   
        3  | 10:57.72 |  5:09.23 |     49347    |    72544   
        4  | 16:07.20 |  3:11.51 |     72545    |    86920   
        5  | 19:18.71 |  6:24.55 |     86921    |   115775   
        6  | 25:43.51 |  5:34.59 |    115776    |   140884   
        7  | 31:18.35 |  5:11.46 |    140885    |   164255   
        8  | 36:30.06 |  5:07.33 |    164256    |   187313   
        9  | 41:37.39 |  4:14.28 |    187314    |   206391   
       10  | 45:51.67 |  5:50.66 |    206392    |   232707   
       11  | 51:42.58 |  4:30.41 |    232708    |   252998   
       12  | 56:13.24 |  5:39.38 |    252999    |   278461   


Range status and errors

Selected range

     Filename F:\Slayer - The Big 4 - Live From Sofia, Bulgaria (CD 3).wav

     Peak level 100.0 %
     Extraction speed 0.3 X
     Range quality 99.9 %
     Test CRC F26D5A69
     Copy CRC F26D5A69
     Copy OK

No errors occurred

 
AccurateRip summary
 
Track  1  accurately ripped (confidence 3)  [87A61C30]
Track  2  accurately ripped (confidence 3)  [20949A20]
Track  3  accurately ripped (confidence 3)  [4DF1BCAA]
Track  4  accurately ripped (confidence 3)  [5E518EA3]
Track  5  accurately ripped (confidence 3)  [8CC6994B]
Track  6  accurately ripped (confidence 3)  [8E2A2006]
Track  7  accurately ripped (confidence 3)  [485ED54F]
Track  8  accurately ripped (confidence 3)  [E0CF3773]
Track  9  accurately ripped (confidence 3)  [221D1A24]
Track 10  accurately ripped (confidence 3)  [58495391]
Track 11  accurately ripped (confidence 3)  [E439D487]
Track 12  accurately ripped (confidence 3)  [02E8C62A]
 
All tracks accurately ripped

End of status report

==== Log checksum 2F9E72B7895C1ABBBD62EBB45B4989D53BE7043F958E22C4642DBB0BFEA202BB ====


CD4
:::

Exact Audio Copy V1.0 beta 1 from 15. November 2010

EAC extraction logfile from 7. February 2011, 20:20

Metallica / The Big 4 - Live From Sofia, Bulgaria (CD 5)

Used drive  : Optiarc DVD RW AD-7200S   Adapter: 4  ID: 0

Read mode               : Secure
Utilize accurate stream : Yes
Defeat audio cache      : Yes
Make use of C2 pointers : No

Read offset correction                      : 48
Overread into Lead-In and Lead-Out          : No
Fill up missing offset samples with silence : Yes
Delete leading and trailing silent blocks   : No
Null samples used in CRC calculations       : Yes
Used interface                              : Native Win32 interface for Win NT & 2000

Used output format : Internal WAV Routines
Sample format      : 44.100 Hz; 16 Bit; Stereo


TOC of the extracted CD

     Track |   Start  |  Length  | Start sector | End sector 
    ---------------------------------------------------------
        1  |  0:00.10 |  8:34.45 |        10    |    38604   
        2  |  8:34.55 |  8:06.29 |     38605    |    75083   
        3  | 16:41.09 |  7:58.17 |     75084    |   110950   
        4  | 24:39.26 |  5:56.42 |    110951    |   137692   
        5  | 30:35.68 | 11:08.19 |    137693    |   187811   
        6  | 41:44.12 |  6:05.64 |    187812    |   215250   
        7  | 47:50.01 |  5:25.09 |    215251    |   239634   
        8  | 53:15.10 | 12:40.63 |    239635    |   296697   


Range status and errors

Selected range

     Filename F:\Metallica - The Big 4 - Live From Sofia, Bulgaria (CD 5).wav

     Peak level 100.0 %
     Extraction speed 0.8 X
     Range quality 100.0 %
     Test CRC FBC35094
     Copy CRC FBC35094
     Copy OK

No errors occurred

 
AccurateRip summary
 
Track  1  accurately ripped (confidence 4)  [C734A1EA]
Track  2  accurately ripped (confidence 4)  [550E6DEB]
Track  3  accurately ripped (confidence 4)  [9BC6C8A5]
Track  4  accurately ripped (confidence 4)  [F69B369E]
Track  5  accurately ripped (confidence 4)  [8B7FD9A3]
Track  6  accurately ripped (confidence 4)  [3607D000]
Track  7  accurately ripped (confidence 4)  [FF4DE8DC]
Track  8  accurately ripped (confidence 4)  [C84A7751]
 
All tracks accurately ripped

End of status report

==== Log checksum C9C86E2E6A339B4EFD8902EFE454F8DD891A17D9901A8256E5072F3586637B35 ====


Create a new paste based on this one


Comments: