[ create a new paste ] login | about

Link: http://codepad.org/FBHsNfnz    [ raw code | fork ]

Plain Text, pasted on Dec 5:
foobar2000 1.5 / Dynamic Range Meter 1.1.1
log date: 2019-12-05 19:46:14

--------------------------------------------------------------------------------
Analyzed: The Who / WHO (Deluxe)
--------------------------------------------------------------------------------

DR         Peak         RMS     Duration Track
--------------------------------------------------------------------------------
DR5        0.00 dB    -7.30 dB      3:21 01-All This Music Must Fade
DR6        0.00 dB    -7.84 dB      4:30 02-Ball and Chain
DR5        0.00 dB    -6.33 dB      3:55 03-I Don't Wanna Get Wise
DR5        0.00 dB    -7.06 dB      3:46 04-Detour
DR5        0.00 dB    -7.34 dB      3:40 05-Beads On One String
DR5        0.00 dB    -6.90 dB      4:53 06-Hero Ground Zero
DR6        0.00 dB    -7.01 dB      4:48 07-Street Song
DR7        0.00 dB    -8.59 dB      5:02 08-I'll Be Back
DR6        0.00 dB    -7.51 dB      4:30 09-Break The News
DR5        0.00 dB    -6.96 dB      4:05 10-Rockin' In Rage
DR6        0.00 dB    -7.06 dB      3:23 11-She Rocked My World
DR5        0.00 dB    -6.00 dB      3:35 12-This Gun Will Misfire
DR5       -0.04 dB    -6.02 dB      3:38 13-Got Nothing To Prove
DR8        0.00 dB    -9.79 dB      4:02 14-Danny And My Ponies
--------------------------------------------------------------------------------

Number of tracks:  14
Official DR value: DR6

Samplerate:        44100 Hz
Channels:          2
Bits per sample:   16
Bitrate:           870 kbps
Codec:             FLAC
================================================================================




Create a new paste based on this one


Comments: