[ create a new paste ] login | about

Link: http://codepad.org/FFQYZV1C    [ raw code | fork ]

Plain Text, pasted on Jan 27:
Exact Audio Copy V1.0 beta 3 from 29. August 2011

EAC extraction logfile from 29. July 2014, 13:20

Electric Prunes / The Complete Reprise Singles

Used drive  : ASUS    DRW-1814BLT   Adapter: 3  ID: 0

Read mode               : Secure
Utilize accurate stream : Yes
Defeat audio cache      : Yes
Make use of C2 pointers : No

Read offset correction                      : 6
Overread into Lead-In and Lead-Out          : No
Fill up missing offset samples with silence : Yes
Delete leading and trailing silent blocks   : No
Null samples used in CRC calculations       : Yes
Used interface                              : Installed external ASPI interface

Used output format              : User Defined Encoder
Selected bitrate                : 896 kBit/s
Quality                         : High
Add ID3 tag                     : No
Command line compressor         : K:\Programm\eac\Exact Audio Copy\Flac\flac.exe
Additional command line options : -V -8 -T "Date=%year%" -T "Genre=%genre%" %source%


TOC of the extracted CD

     Track |   Start  |  Length  | Start sector | End sector 
    ---------------------------------------------------------
        1  |  0:00.00 |  2:15.28 |         0    |    10152   
        2  |  2:15.28 |  2:43.11 |     10153    |    22388   
        3  |  4:58.39 |  3:00.24 |     22389    |    35912   
        4  |  7:58.63 |  2:07.42 |     35913    |    45479   
        5  | 10:06.30 |  2:35.63 |     45480    |    57167   
        6  | 12:42.18 |  2:25.32 |     57168    |    68074   
        7  | 15:07.50 |  2:32.40 |     68075    |    79514   
        8  | 17:40.15 |  2:47.68 |     79515    |    92107   
        9  | 20:28.08 |  3:20.32 |     92108    |   107139   
       10  | 23:48.40 |  2:31.68 |    107140    |   118532   
       11  | 26:20.33 |  3:04.37 |    118533    |   132369   
       12  | 29:24.70 |  2:08.51 |    132370    |   142020   
       13  | 31:33.46 |  2:56.48 |    142021    |   155268   
       14  | 34:30.19 |  5:00.22 |    155269    |   177790   
       15  | 39:30.41 |  2:24.07 |    177791    |   188597   
       16  | 41:54.48 |  3:19.65 |    188598    |   203587   
       17  | 45:14.38 |  3:50.37 |    203588    |   220874   
       18  | 49:05.00 |  2:50.39 |    220875    |   233663   
       19  | 51:55.39 |  3:06.46 |    233664    |   247659   
       20  | 55:02.10 |  2:28.64 |    247660    |   258823   
       21  | 57:30.74 |  3:20.67 |    258824    |   273890   
       22  | 60:51.66 |  3:43.70 |    273891    |   290685   
       23  | 64:35.61 |  3:03.26 |    290686    |   304436   
       24  | 67:39.12 |  1:02.57 |    304437    |   309143   


Range status and errors

Selected range

     Filename F:\EAC\Electric Prunes - The Complete Reprise Singles.wav

     Peak level 100.0 %
     Extraction speed 3.3 X
     Range quality 100.0 %
     Test CRC 86DF3BA6
     Copy CRC 86DF3BA6
     Copy OK

No errors occurred

 
AccurateRip summary
 
Track  1  accurately ripped (confidence 5)  [1F5C753E]  (AR v2)
Track  2  accurately ripped (confidence 5)  [53B3C450]  (AR v2)
Track  3  accurately ripped (confidence 5)  [E529F976]  (AR v2)
Track  4  accurately ripped (confidence 5)  [42376FC3]  (AR v2)
Track  5  accurately ripped (confidence 5)  [31716AA3]  (AR v2)
Track  6  accurately ripped (confidence 5)  [0C733D7A]  (AR v2)
Track  7  accurately ripped (confidence 5)  [91A2AD8B]  (AR v2)
Track  8  accurately ripped (confidence 5)  [F71D3085]  (AR v2)
Track  9  accurately ripped (confidence 5)  [377A60D8]  (AR v2)
Track 10  accurately ripped (confidence 5)  [2739366C]  (AR v2)
Track 11  accurately ripped (confidence 5)  [02258E6F]  (AR v2)
Track 12  accurately ripped (confidence 5)  [E00F405C]  (AR v2)
Track 13  accurately ripped (confidence 5)  [8641B599]  (AR v2)
Track 14  accurately ripped (confidence 5)  [D11E489C]  (AR v2)
Track 15  accurately ripped (confidence 5)  [D64AFD64]  (AR v2)
Track 16  accurately ripped (confidence 5)  [6435C1CE]  (AR v2)
Track 17  accurately ripped (confidence 5)  [7A2677A6]  (AR v2)
Track 18  accurately ripped (confidence 5)  [967AD457]  (AR v2)
Track 19  accurately ripped (confidence 5)  [1E31F724]  (AR v2)
Track 20  accurately ripped (confidence 5)  [36BAC2D6]  (AR v2)
Track 21  accurately ripped (confidence 5)  [7B227929]  (AR v2)
Track 22  accurately ripped (confidence 5)  [509F8C5C]  (AR v2)
Track 23  accurately ripped (confidence 5)  [31579ABD]  (AR v2)
Track 24  accurately ripped (confidence 5)  [16226519]  (AR v2)
 
All tracks accurately ripped

End of status report

---- CUETools DB Plugin V2.1.4

[CTDB TOCID: AJEnj69kPC2gX2uxuOjNgk1e_fE-] found
Submit result: AJEnj69kPC2gX2uxuOjNgk1e_fE- has been confirmed
Track | CTDB Status
  1   | (4/4) Accurately ripped
  2   | (4/4) Accurately ripped
  3   | (4/4) Accurately ripped
  4   | (4/4) Accurately ripped
  5   | (4/4) Accurately ripped
  6   | (4/4) Accurately ripped
  7   | (4/4) Accurately ripped
  8   | (4/4) Accurately ripped
  9   | (4/4) Accurately ripped
 10   | (4/4) Accurately ripped
 11   | (4/4) Accurately ripped
 12   | (4/4) Accurately ripped
 13   | (4/4) Accurately ripped
 14   | (4/4) Accurately ripped
 15   | (4/4) Accurately ripped
 16   | (4/4) Accurately ripped
 17   | (4/4) Accurately ripped
 18   | (4/4) Accurately ripped
 19   | (4/4) Accurately ripped
 20   | (4/4) Accurately ripped
 21   | (4/4) Accurately ripped
 22   | (4/4) Accurately ripped
 23   | (4/4) Accurately ripped
 24   | (4/4) Accurately ripped


==== Log checksum B310A01CFC6F21B47AAB7DC4AD6778F555FB1590A1EC6851773A519B83267D66 ====



Create a new paste based on this one


Comments: