[ create a new paste ] login | about

Link: http://codepad.org/FGdxJT2d    [ raw code | fork ]

Plain Text, pasted on Dec 14:
Associated Recordings 2.0 Stereo
::::::::::::::::::::::::::::::::

foobar2000 1.3.17 / Dynamic Range Meter 1.1.1
log date: 2018-03-24 11:11:37

--------------------------------------------------------------------------------
Analyzed: Jethro Tull / Heavy Horses: Associated Recordings (Stereo)
--------------------------------------------------------------------------------

DR         Peak         RMS     Duration Track
--------------------------------------------------------------------------------
DR11      -0.10 dB   -13.47 dB      3:20 01-Living In These Hard Times (Version 2)
DR11      -0.10 dB   -13.09 dB      3:23 02-Everything In Our Lives
DR12      -3.73 dB   -19.27 dB      3:49 03-Jack-A-Lynn (Early Version)
DR14      -0.10 dB   -16.99 dB      3:51 04-Quatrain (Studio Version) [Stereo Only]
DR12      -0.10 dB   -14.39 dB      4:12 05-Horse-Hoeing Husbandry
DR10      -0.10 dB   -11.79 dB      5:22 06-Beltane
DR12      -3.26 dB   -18.02 dB      3:15 07-Botanic Man
DR12      -0.10 dB   -13.62 dB      3:10 08-Living In These Hard Times (Version 1)
DR11      -6.30 dB   -19.92 dB      1:24 09-Botanic Man Theme
--------------------------------------------------------------------------------

Number of tracks:  9
Official DR value: DR12

Samplerate:        96000 Hz
Channels:          2
Bits per sample:   24
Bitrate:           2403 kbps
Codec:             FLAC
================================================================================



Associated Recordings 5.1 Surround
::::::::::::::::::::::::::::::::::

foobar2000 1.3.17 / Dynamic Range Meter 1.1.1
log date: 2018-03-24 11:12:24

--------------------------------------------------------------------------------
Analyzed: Jethro Tull / Heavy Horses: Associated Recordings (5.1 Surround)
--------------------------------------------------------------------------------

DR         Peak         RMS     Duration Track
--------------------------------------------------------------------------------
DR14      -0.07 dB   -19.46 dB      3:20 01-Living In These Hard Times (Version 2)
DR13      -0.11 dB   -18.93 dB      3:24 02-Everything In Our Lives
DR12      -5.15 dB   -24.52 dB      3:50 03-Jack-A-Lynn (Early Version)
DR7       -0.10 dB   -19.95 dB      3:51 04-Quatrain (Studio Version) [Stereo Only]
DR13      -0.11 dB   -19.82 dB      4:13 05-Horse-Hoeing Husbandry
DR12      -0.10 dB   -17.51 dB      5:21 06-Beltane
DR12      -7.08 dB   -23.31 dB      3:14 07-Botanic Man
DR14      -0.10 dB   -19.55 dB      3:10 08-Living In These Hard Times (Version 1)
DR11     -10.53 dB   -27.76 dB      1:25 09-Botanic Man Theme
--------------------------------------------------------------------------------

Number of tracks:  9
Official DR value: DR12

Samplerate:        96000 Hz
Channels:          6
Bits per sample:   24
Bitrate:           5595 kbps
Codec:             FLAC
================================================================================



Associated Recordings Stereo Mixes Flat Transfer
::::::::::::::::::::::::::::::::::::::::::::::::

foobar2000 1.3.17 / Dynamic Range Meter 1.1.1
log date: 2018-03-24 11:12:32

--------------------------------------------------------------------------------
Analyzed: Jethro Tull / Heavy Horses: Associated Recordings Stereo Mixes Flat Transfer
--------------------------------------------------------------------------------

DR         Peak         RMS     Duration Track
--------------------------------------------------------------------------------
DR14      -3.53 dB   -19.41 dB      4:16 01-Rover (No Strings Version)
DR13      -1.75 dB   -16.89 dB      3:20 02-Living In These Hard Times (Version2)
DR12      -0.96 dB   -15.52 dB      5:23 03-Beltane
--------------------------------------------------------------------------------

Number of tracks:  3
Official DR value: DR13

Samplerate:        96000 Hz
Channels:          2
Bits per sample:   24
Bitrate:           3070 kbps
Codec:             FLAC
================================================================================



Original 1978 Stereo Mixes Flat Transfer
::::::::::::::::::::::::::::::::::::::::

foobar2000 1.3.17 / Dynamic Range Meter 1.1.1
log date: 2018-03-24 11:17:34

--------------------------------------------------------------------------------
Analyzed: Jethro Tull / Heavy Horses: Original 1978 Stereo Mixes Flat Transfer
--------------------------------------------------------------------------------

DR         Peak         RMS     Duration Track
--------------------------------------------------------------------------------
DR12      -3.51 dB   -18.29 dB      3:14 01-…And The Mouse Police Never Sleeps
DR13      -2.28 dB   -18.76 dB      3:25 02-Acres Wild
DR12      -2.97 dB   -18.37 dB      7:53 03-No Lullaby
DR13      -2.58 dB   -17.76 dB      3:27 04-Moths
DR13      -2.77 dB   -18.16 dB      3:59 05-Journeyman
DR13      -2.76 dB   -18.60 dB      4:16 06-Rover
DR11      -3.82 dB   -17.99 dB      3:24 07-One Brown Mouse
DR12      -2.67 dB   -18.29 dB      8:57 08-Heavy Horses
DR13      -3.80 dB   -20.35 dB      4:07 09-Weathercock
--------------------------------------------------------------------------------

Number of tracks:  9
Official DR value: DR13

Samplerate:        96000 Hz
Channels:          2
Bits per sample:   24
Bitrate:           2904 kbps
Codec:             FLAC
================================================================================



The Steven Wilson Remixes 2.0 Stereo
::::::::::::::::::::::::::::::::::::

foobar2000 1.3.17 / Dynamic Range Meter 1.1.1
log date: 2018-03-24 11:18:02

--------------------------------------------------------------------------------
Analyzed: Jethro Tull / Heavy Horses: The Steven Wilson Remixes (Stereo)
--------------------------------------------------------------------------------

DR         Peak         RMS     Duration Track
--------------------------------------------------------------------------------
DR11      -0.10 dB   -13.79 dB      3:14 01-…And The Mouse Police Never Sleeps
DR12      -0.10 dB   -14.16 dB      3:25 02-Acres Wild
DR11      -0.10 dB   -12.80 dB      7:53 03-No Lullaby
DR13      -0.10 dB   -14.78 dB      3:32 04-Moths
DR13      -0.10 dB   -15.21 dB      4:01 05-Journeyman
DR14      -0.10 dB   -15.83 dB      4:33 06-Rover
DR11      -0.10 dB   -13.44 dB      3:24 07-One Brown Mouse
DR12      -0.10 dB   -14.30 dB      9:05 08-Heavy Horses
DR13      -0.10 dB   -16.31 dB      4:04 09-Weathercock
--------------------------------------------------------------------------------

Number of tracks:  9
Official DR value: DR12

Samplerate:        96000 Hz
Channels:          2
Bits per sample:   24
Bitrate:           2766 kbps
Codec:             FLAC
================================================================================



The Steven Wilson Remixes 5.1 Surround
::::::::::::::::::::::::::::::::::::::

foobar2000 1.3.17 / Dynamic Range Meter 1.1.1
log date: 2018-03-24 11:20:04

--------------------------------------------------------------------------------
Analyzed: Jethro Tull / Heavy Horses: The Steven Wilson Remixes (5.1 Surround)
--------------------------------------------------------------------------------

DR         Peak         RMS     Duration Track
--------------------------------------------------------------------------------
DR14      -0.10 dB   -19.35 dB      3:13 01-…And The Mouse Police Never Sleeps
DR14      -0.07 dB   -19.87 dB      3:25 02-Acres Wild
DR14      -0.10 dB   -19.36 dB      7:54 03-No Lullaby
DR15      -0.10 dB   -20.71 dB      3:31 04-Moths
DR15      -0.10 dB   -19.88 dB      4:01 05-Journeyman
DR16      -0.42 dB   -21.62 dB      4:33 06-Rover
DR13      -0.08 dB   -18.72 dB      3:23 07-One Brown Mouse
DR14      -0.08 dB   -20.58 dB      9:05 08-Heavy Horses
DR14      -0.03 dB   -21.10 dB      4:04 09-Weathercock
--------------------------------------------------------------------------------

Number of tracks:  9
Official DR value: DR14

Samplerate:        96000 Hz
Channels:          6
Bits per sample:   24
Bitrate:           6580 kbps
Codec:             FLAC
================================================================================



Live In Berne, May 1978 – 2.0 Stereo
::::::::::::::::::::::::::::::::::::

foobar2000 1.3.17 / Dynamic Range Meter 1.1.1
log date: 2018-03-24 11:13:36

--------------------------------------------------------------------------------
Analyzed: Jethro Tull / Live In Berne, May 1978 (Stereo)
--------------------------------------------------------------------------------

DR         Peak         RMS     Duration Track
--------------------------------------------------------------------------------
DR10      -8.43 dB   -20.94 dB      2:49 01-Opening Music (Quartet)
DR10      -2.95 dB   -21.22 dB      0:26 02-Introduction By Claude Nobs
DR13       0.00 dB   -14.86 dB      4:49 03-No Lullaby
DR13       0.00 dB   -15.54 dB      6:02 04-Sweet Dream
DR13      -2.78 dB   -19.79 dB      3:28 05-Skating Away On The Thin Ice Of The New Day
DR16      -0.86 dB   -21.15 dB      3:09 06-Jack-In-The-Green
DR15      -1.79 dB   -21.17 dB      4:01 07-One Brown Mouse
DR15       0.00 dB   -18.58 dB      9:54 08-Heavy Horses
DR15      -0.84 dB   -18.12 dB      3:11 09-A New Day Yesterday
DR15      -1.10 dB   -20.48 dB      5:31 10-Flute Solo Improvisation, God Rest Ye Merry Gentlemen, Bouree
DR15       0.00 dB   -17.42 dB      1:48 11-Living In The Past, A New Day Yesterday (Reprise)
DR14       0.00 dB   -16.97 dB      5:10 12-Songs From The Wood
DR15       0.00 dB   -18.55 dB     13:24 13-Thick As A Brick
DR15       0.00 dB   -17.43 dB      5:33 14-Hunting Girl
DR14      -0.61 dB   -18.57 dB      3:52 15-Too Old To Rock 'n' Roll
DR14      -0.21 dB   -17.31 dB      8:03 16-Conundrum
DR14       0.00 dB   -16.88 dB      5:28 17-Minstrel In The Gallery
DR13       0.00 dB   -15.89 dB      4:25 18-Cross-Eyed Mary
DR15      -2.14 dB   -18.83 dB      1:37 19-Quatrain
DR14      -0.88 dB   -17.74 dB      8:09 20-Aqualung
DR14       0.00 dB   -16.74 dB      5:32 21-Locomotive Breath
DR14      -0.65 dB   -17.26 dB      3:28 22-The Dambusters March, Aqualung (Reprise)
--------------------------------------------------------------------------------

Number of tracks:  22
Official DR value: DR14

Samplerate:        96000 Hz
Channels:          2
Bits per sample:   24
Bitrate:           2692 kbps
Codec:             FLAC
================================================================================



Live In Berne, May 1978 – 5.1 Surround
::::::::::::::::::::::::::::::::::::::


foobar2000 1.3.17 / Dynamic Range Meter 1.1.1
log date: 2018-03-24 11:17:05

--------------------------------------------------------------------------------
Analyzed: Jethro Tull / Live In Berne, May 1978 (5.1 Surround)
--------------------------------------------------------------------------------

DR         Peak         RMS     Duration Track
--------------------------------------------------------------------------------
DR12      -5.95 dB   -23.09 dB      2:50 01-Opening Music (Quartet)
DR12      -0.49 dB   -20.62 dB      0:26 02-Introduction By Claude Nobs
DR14      -0.85 dB   -21.12 dB      4:48 03-No Lullaby
DR15       0.00 dB   -20.70 dB      6:02 04-Sweet Dream
DR16      -5.37 dB   -26.88 dB      3:29 05-Skating Away On The Thin Ice Of The New Day
DR18      -2.36 dB   -27.12 dB      3:09 06-Jack-In-The-Green
DR17      -4.67 dB   -27.31 dB      4:02 07-One Brown Mouse
DR16       0.00 dB   -21.74 dB      9:53 08-Heavy Horses
DR15      -3.67 dB   -23.76 dB      3:10 09-A New Day Yesterday
DR18      -1.70 dB   -26.43 dB      5:32 10-Flute Solo Improvisation, God Rest Ye Merry Gentlemen, Bouree
DR15      -2.62 dB   -22.65 dB      1:49 11-Living In The Past, A New Day Yesterday (Reprise)
DR16       0.00 dB   -22.43 dB      5:09 12-Songs From The Wood
DR16      -0.10 dB   -22.78 dB     13:25 13-Thick As A Brick
DR16       0.00 dB   -21.59 dB      5:33 14-Hunting Girl
DR14      -2.35 dB   -23.55 dB      3:51 15-Too Old To Rock 'n' Roll
DR15      -2.25 dB   -23.75 dB      8:03 16-Conundrum
DR16      -1.83 dB   -24.11 dB      5:29 17-Minstrel In The Gallery
DR13      -2.47 dB   -21.43 dB      4:24 18-Cross-Eyed Mary
DR17      -2.08 dB   -24.24 dB      1:38 19-Quatrain
DR16      -1.04 dB   -22.84 dB      8:08 20-Aqualung
DR15       0.00 dB   -21.81 dB      5:33 21-Locomotive Breath
DR16      -1.68 dB   -22.71 dB      3:30 22-The Dambusters March, Aqualung (Reprise)
--------------------------------------------------------------------------------

Number of tracks:  22
Official DR value: DR15

Samplerate:        96000 Hz
Channels:          6
Bits per sample:   24
Bitrate:           7046 kbps
Codec:             FLAC
================================================================================





Create a new paste based on this one


Comments: