[ create a new paste ] login | about

Link: http://codepad.org/FHWgMYdj    [ raw code | fork ]

Plain Text, pasted on Nov 26:
foobar2000 1.3.17 / Dynamic Range Meter 1.1.1
log date: 2018-11-25 13:31:05

--------------------------------------------------------------------------------
Analyzed: The Jimi Hendrix Experience / Electric Ladyland (2018 Remaster)
--------------------------------------------------------------------------------

DR         Peak         RMS     Duration Track
--------------------------------------------------------------------------------
DR8       -3.01 dB   -15.44 dB      1:24 01-...And The Gods Made Love
DR9       -3.01 dB   -13.53 dB      2:10 02-Have You Ever Been (To Electric Ladyland)
DR7       -3.01 dB   -12.08 dB      2:27 03-Crosstown Traffic
DR6       -3.01 dB   -11.51 dB     15:03 04-Voodoo Chile
DR8       -3.01 dB   -12.96 dB      2:53 05-Little Miss Strange
DR8       -3.01 dB   -13.32 dB      3:28 06-Long Hot Summer Night
DR8       -3.01 dB   -12.53 dB      4:10 07-Come On (Let The Good Times Roll)
DR9       -3.01 dB   -13.38 dB      3:45 08-Gypsy Eyes
DR9       -3.01 dB   -12.90 dB      3:41 09-Burning Of The Midnight Lamp
DR8       -3.01 dB   -13.54 dB      3:42 10-Rainy Day, Dream Away
DR8       -3.01 dB   -14.28 dB     13:41 11-1983... (A Merman I Should Turn To Be)
DR12      -3.01 dB   -21.82 dB      1:04 12-Moon, Turn The Tides...Gently Gently Away
DR6       -3.01 dB   -11.18 dB      4:27 13-Still Raining, Still Dreaming
DR8       -3.01 dB   -12.59 dB      4:33 14-House Burning Down
DR7       -3.01 dB   -11.37 dB      4:02 15-All Along The Watchtower
DR8       -3.01 dB   -12.32 dB      5:13 16-Voodoo Child (Slight Return)
--------------------------------------------------------------------------------

Number of tracks:  16
Official DR value: DR8

Samplerate:        96000 Hz
Channels:          2
Bits per sample:   24
Bitrate:           3191 kbps
Codec:             FLAC
================================================================================




Create a new paste based on this one


Comments: