[ create a new paste ] login | about

Link: http://codepad.org/FL9qJND5    [ raw code | fork ]

Plain Text, pasted on Nov 27:
foobar2000 1.3.10 / Dynamic Range Meter 1.1.1
log date: 2016-11-27 14:37:04

--------------------------------------------------------------------------------
Analyzed: *NSYNC / Christmas Pop (1-2)
          A Great Big World / Christmas Pop (3)
          Albert Hammond / Christmas Pop (4)
          Angela Strehli / Christmas Pop (5)
          Big Time Rush / Christmas Pop (6-7)
          Boney M. / Christmas Pop (8-9)
          CĂ©line Dion / Christmas Pop (10-11)
          Christina Aguilera / Christmas Pop (12-13)
          Cyndi Lauper / Christmas Pop (14)
          Destiny's Child / Christmas Pop (15-16)
          Do / Christmas Pop (17)
          Fifth Harmony / Christmas Pop (18)
          Gene Autry with The Cass County Boys / Christmas Pop (19)
          Glee Cast / Christmas Pop (20-21)
          Harry Connick, Jr. / Christmas Pop (22)
          Jessica Simpson duet with Nick Lachey / Christmas Pop (23)
          Jessica Simpson / Christmas Pop (24-25)
          Karmin / Christmas Pop (26)
          Kelly Clarkson / Christmas Pop (27-28)
          Leona Lewis / Christmas Pop (29)
          Little Mix / Christmas Pop (30)
          Los Del Rio / Christmas Pop (31)
          Mariah Carey / Christmas Pop (32)
          Meghan Trainor / Christmas Pop (33)
          Metro Station / Christmas Pop (34)
          New Kids On The Block / Christmas Pop (35-36)
          Olly Murs / Christmas Pop (37)
          Pentatonix / Christmas Pop (38-39)
          Sara Bareilles / Christmas Pop (40)
          Shakin' Stevens / Christmas Pop (41-42)
          Spike Jones & His City Slickers / Christmas Pop (43)
          The Raveonettes / Christmas Pop (44)
          The Weather Girls / Christmas Pop (45)
          Victorious Cast / Christmas Pop (46)
          Weird Al Yankovic / Christmas Pop (47)
          Westlife / Christmas Pop (48)
          Whitney Houston / Christmas Pop (49-50)
--------------------------------------------------------------------------------

DR         Peak         RMS     Duration Track
--------------------------------------------------------------------------------
DR8       -0.10 dB   -10.67 dB      4:30 12-Home For Christmas
DR8        0.00 dB   -10.17 dB      3:53 45-I Guess It's Christmas Time
DR7        0.00 dB    -9.06 dB      2:20 31-I Want a Hippopotamus for Christmas
DR8       -1.65 dB   -10.96 dB      3:36 20-Under the Christmas Tree
DR10      -0.01 dB   -13.83 dB      2:26 23-Boogie Woogie Santa Claus
DR5       -0.06 dB    -6.78 dB      3:32 24-All I Want for Christmas
DR6       -0.10 dB    -7.62 dB      3:36 38-Beautiful Christmas
DR9       -0.08 dB   -13.06 dB      3:20 21-When a Child Is Born
DR10      -0.08 dB   -11.41 dB      7:51 34-Christmas Medley
DR6       -0.50 dB    -9.06 dB      4:16 14-Christmas Eve
DR6       -0.10 dB    -9.15 dB      4:37 43-Don't Save It All for Christmas Day
DR7       -0.10 dB   -10.43 dB      4:02 10-This Christmas
DR8       -0.10 dB   -10.94 dB      4:09 49-Angels We Have Heard On High
DR8       -3.28 dB   -12.80 dB      3:31 25-Christmas Conga
DR7        0.00 dB   -10.63 dB      1:43 15-White Christmas
DR10       0.00 dB   -12.95 dB      3:41 46-Silent Night
DR6       -0.10 dB    -8.53 dB      3:54 30-Everyday Is Christmas
DR8       -1.01 dB   -10.53 dB      3:20 18-Noche de Paz
DR12      -1.85 dB   -15.73 dB      2:53 11-Frosty the Snowman (78rpm Version)
DR6       -0.10 dB    -7.79 dB      3:25 13-Do They Know It's Christmas? (Glee Cast Version)
DR6       -0.20 dB    -7.32 dB      2:19 27-Rockin' Around the Christmas Tree (Glee Cast Version)
DR12      -0.50 dB   -16.50 dB      3:39 29-Zat You Santa Claus
DR8       -0.02 dB   -10.24 dB      2:47 06-Baby, It's Cold Outside
DR8       -0.02 dB    -9.71 dB      2:01 37-Let It Snow, Let It Snow, Let It Snow
DR8       -0.02 dB   -11.01 dB      3:07 48-I Saw Mommy Kissing Santa Claus
DR6       -0.10 dB    -7.33 dB      3:04 39-Sleigh Ride
DR6       -0.01 dB    -8.02 dB      3:50 03-Underneath the Tree
DR5       -0.01 dB    -6.14 dB      2:28 42-Run Run Rudolph
DR8        0.00 dB   -11.74 dB      2:53 07-O Holy Night
DR5        0.00 dB    -6.52 dB      3:29 02-Love Me Like You (Christmas Mix)
DR10      -0.20 dB   -11.51 dB      4:13 26-Macarena Christmas (Joy Mix)
DR10      -0.20 dB   -11.76 dB      2:34 04-Christmas (Baby Please Come Home)
DR7        0.00 dB   -10.24 dB      3:39 01-I'll Be Home
DR6       -0.21 dB    -7.57 dB      3:56 40-Last Christmas
DR17      -0.20 dB   -18.90 dB      5:06 33-Funky, Funky, Xmas
DR13      -0.02 dB   -15.53 dB      3:56 44-This One's for the Children
DR7       -0.18 dB    -9.88 dB      3:38 19-I Wish It Could Be Christmas Everyday (BBC Live Version)
DR8       -0.01 dB    -9.69 dB      3:28 05-Winter Wonderland / Don't Worry Be Happy
DR8       -0.01 dB   -11.97 dB      2:07 50-Dance of the Sugar Plum Fairy
DR7       -1.48 dB   -11.73 dB      4:27 09-Winter Song
DR7       -0.06 dB    -8.74 dB      2:45 32-Blue Christmas (Remastered Version)
DR7       -0.06 dB    -8.35 dB      2:36 35-Rockin' Little Christmas (Remastered Version)
DR11      -2.18 dB   -14.81 dB      3:07 17-All I Want for Christmas (Is My Two Front Teeth)
DR6       -0.01 dB    -7.61 dB      2:13 08-The Christmas Song
DR7       -0.30 dB    -9.82 dB      3:50 22-Dear Santa (Bring Me a Man This Christmas), Pt. 1
DR7       -0.10 dB    -8.55 dB      2:33 28-It's Not Christmas Without You
DR8        0.00 dB   -10.54 dB      4:03 36-The Night Santa Went Crazy
DR8       -0.08 dB   -10.10 dB      4:07 41-I Have a Dream
DR7       -0.10 dB    -8.65 dB      4:49 16-Have Yourself a Merry Little Christmas
DR6       -0.10 dB    -8.95 dB      4:30 47-Little Drummer Boy
--------------------------------------------------------------------------------

Number of tracks:  50
Official DR value: DR8

Samplerate:        44100 Hz
Channels:          2
Bits per sample:   16
Bitrate:           957 kbps
Codec:             FLAC
================================================================================




Create a new paste based on this one


Comments: