[ create a new paste ] login | about

Link: http://codepad.org/FPr8tuD5    [ raw code | fork ]

Plain Text, pasted on Jan 31:
[CUETools log; Date: 1/31/2020 5:47:19 PM; Version: 2.1.7]
[CTDB TOCID: wst7kBcftA0u0My1a7mZ9SEqqNg-] found.
Track | CTDB Status
  1   | (40/40) Accurately ripped
  2   | (40/40) Accurately ripped
  3   | (40/40) Accurately ripped
  4   | (40/40) Accurately ripped
  5   | (40/40) Accurately ripped
  6   | (40/40) Accurately ripped
  7   | (40/40) Accurately ripped
  8   | (40/40) Accurately ripped
  9   | (40/40) Accurately ripped
[AccurateRip ID: 000dc7e5-00660632-6d09d909] found.
Track   [  CRC   |   V2   ] Status
 01     [b3be7f3f|9efa6dc7] (00+13/13) Accurately ripped
 02     [60aaf03f|027f279c] (00+13/13) Accurately ripped
 03     [25264fc2|5bdec313] (00+13/13) Accurately ripped
 04     [b813f0dc|44f3315b] (00+13/13) Accurately ripped
 05     [5cf919e8|2693998b] (00+13/13) Accurately ripped
 06     [e48521ee|9371eb54] (00+13/13) Accurately ripped
 07     [954b1dfa|ad8e4ab8] (00+13/13) Accurately ripped
 08     [70eda595|b610df61] (00+13/13) Accurately ripped
 09     [7cc2bfa9|a8f6573a] (00+13/13) Accurately ripped

Track Peak [ CRC32  ] [W/O NULL] [  LOG   ]
 --   98.1 [72703AB5] [0AC1EFEA]   CRC32   
 01   91.2 [AD827C44] [D5E0B748]           
 02   95.6 [391B4026] [21D724BB]           
 03   92.2 [762DD002] [BA359AC6]           
 04   88.6 [F17AC041] [E8356C74]           
 05   98.1 [276058E1] [925F8660]           
 06   88.3 [85EA90DE] [A0502E62]           
 07   94.6 [27AC5BEB] [24B85B78]           
 08   92.9 [C248992B] [D70AD0AE]           
 09   93.3 [4CA34AAD] [9600C9F6]           



Create a new paste based on this one


Comments: