[ create a new paste ] login | about

Link: http://codepad.org/FWQgj7Uh    [ raw code | fork ]

Plain Text, pasted on Apr 20:
foobar2000 1.3.17 / Dynamic Range Meter 1.1.1
log date: 2018-04-19 12:22:49

--------------------------------------------------------------------------------
Analyzed: Isao Tomita / The Tale of Genji, Symphonic Fantasy Ultimate Edition
--------------------------------------------------------------------------------

DR         Peak         RMS     Duration Track
--------------------------------------------------------------------------------
DR13      -7.12 dB   -30.75 dB      5:27 01-The Tale of Genji -01
DR12      -6.99 dB   -28.75 dB      6:17 02-The Tale of Genji -02
DR10     -15.96 dB   -32.69 dB      1:38 03-The Tale of Genji -03
DR12      -5.55 dB   -31.09 dB      2:55 04-The Tale of Genji -04
DR10     -17.61 dB   -32.92 dB      0:49 05-The Tale of Genji -05
DR12      -7.92 dB   -30.69 dB      3:35 06-The Tale of Genji -06
DR9      -17.46 dB   -33.03 dB      1:41 07-The Tale of Genji -07
DR11     -11.77 dB   -31.25 dB      3:21 08-The Tale of Genji -08
DR12     -11.83 dB   -31.43 dB      5:11 09-The Tale of Genji -09
DR11     -11.65 dB   -31.70 dB      3:02 10-The Tale of Genji -10
DR11      -6.93 dB   -27.61 dB      3:04 11-The Tale of Genji -11
DR13      -5.51 dB   -28.66 dB      3:59 12-The Tale of Genji -12
DR14      -5.73 dB   -30.05 dB      7:52 13-The Tale of Genji -13
--------------------------------------------------------------------------------

Number of tracks:  13
Official DR value: DR12

Samplerate:        2822400 Hz / PCM Samplerate: 176400 Hz
Channels:          6
Bits per sample:   1
Bitrate:           16934 kbps
Codec:             DST64
================================================================================

--------------------------------------------------------------------------------
Analyzed: Isao Tomita / The Tale of Genji, Symphonic Fantasy Ultimate Edition
--------------------------------------------------------------------------------

DR         Peak         RMS     Duration Track
--------------------------------------------------------------------------------
DR15      -6.01 dB   -26.66 dB      5:27 01-The Tale of Genji -01
DR13      -6.61 dB   -25.15 dB      6:17 02-The Tale of Genji -02
DR12     -12.77 dB   -29.23 dB      1:38 03-The Tale of Genji -03
DR15      -5.96 dB   -28.32 dB      2:55 04-The Tale of Genji -04
DR13     -14.54 dB   -29.63 dB      0:49 05-The Tale of Genji -05
DR15      -5.94 dB   -26.02 dB      3:35 06-The Tale of Genji -06
DR12     -16.08 dB   -30.77 dB      1:41 07-The Tale of Genji -07
DR13      -9.28 dB   -26.25 dB      3:21 08-The Tale of Genji -08
DR14      -7.58 dB   -26.61 dB      5:11 09-The Tale of Genji -09
DR12      -8.53 dB   -27.13 dB      3:02 10-The Tale of Genji -10
DR11      -6.34 dB   -23.65 dB      3:04 11-The Tale of Genji -11
DR13      -5.89 dB   -23.14 dB      3:59 12-The Tale of Genji -12
DR15      -5.44 dB   -25.40 dB      7:52 13-The Tale of Genji -13
--------------------------------------------------------------------------------

Number of tracks:  13
Official DR value: DR13

Samplerate:        2822400 Hz / PCM Samplerate: 176400 Hz
Channels:          2
Bits per sample:   1
Bitrate:           5645 kbps
Codec:             DSD64
================================================================================




Create a new paste based on this one


Comments: