[ create a new paste ] login | about

Link: http://codepad.org/Fde1PHw2    [ raw code | fork ]

Plain Text, pasted on Dec 29:
Exact Audio Copy V1.0 beta 2 from 29. April 2011

EAC extraction logfile from 9. September 2013, 22:02

Various Artists / Pure Disco 2

Used drive  : HL-DT-STDVDRAM GH60N   Adapter: 0  ID: 1

Read mode               : Secure
Utilize accurate stream : Yes
Defeat audio cache      : Yes
Make use of C2 pointers : No

Read offset correction                      : 667
Overread into Lead-In and Lead-Out          : No
Fill up missing offset samples with silence : Yes
Delete leading and trailing silent blocks   : No
Null samples used in CRC calculations       : Yes
Used interface                              : Native Win32 interface for Win NT & 2000

Used output format              : User Defined Encoder
Selected bitrate                : 1024 kBit/s
Quality                         : High
Add ID3 tag                     : No
Command line compressor         : C:\Program Files (x86)\Exact Audio Copy\Flac\flac.exe
Additional command line options : -V -5 -T "artist=%albumartist%" -T "title=%title%" -T "album=%albumtitle%" -T "date=%year%" -T "genre=%genre%" -T "tracknumber=%tracknr%" %source%


TOC of the extracted CD

     Track |   Start  |  Length  | Start sector | End sector 
    ---------------------------------------------------------
        1  |  0:00.00 |  4:00.62 |         0    |    18061   
        2  |  4:00.62 |  3:08.38 |     18062    |    32199   
        3  |  7:09.25 |  3:26.27 |     32200    |    47676   
        4  | 10:35.52 |  3:27.70 |     47677    |    63271   
        5  | 14:03.47 |  3:36.63 |     63272    |    79534   
        6  | 17:40.35 |  3:57.12 |     79535    |    97321   
        7  | 21:37.47 |  3:46.23 |     97322    |   114294   
        8  | 25:23.70 |  2:37.40 |    114295    |   126109   
        9  | 28:01.35 |  3:55.07 |    126110    |   143741   
       10  | 31:56.42 |  3:09.15 |    143742    |   157931   
       11  | 35:05.57 |  2:54.23 |    157932    |   171004   
       12  | 38:00.05 |  4:07.50 |    171005    |   189579   
       13  | 42:07.55 |  3:17.62 |    189580    |   204416   
       14  | 45:25.42 |  3:29.45 |    204417    |   220136   
       15  | 48:55.12 |  4:10.38 |    220137    |   238924   
       16  | 53:05.50 |  4:50.05 |    238925    |   260679   
       17  | 57:55.55 |  5:02.07 |    260680    |   283336   
       18  | 62:57.62 |  3:33.28 |    283337    |   299339   
       19  | 66:31.15 |  3:33.60 |    299340    |   315374   
       20  | 70:05.00 |  3:19.67 |    315375    |   330366   
       21  | 73:24.67 |  3:05.03 |    330367    |   344244   


Range status and errors

Selected range

     Filename C:\EAC\Various Artists - Pure Disco 2 (1997)\Various Artists - Pure Disco 2.wav

     Peak level 100.0 %
     Extraction speed 2.1 X
     Range quality 99.9 %
     Test CRC FFE2B4A1
     Copy CRC FFE2B4A1
     Copy OK

No errors occurred

 
AccurateRip summary
 
Track  1  accurately ripped (confidence 3)  [D1878A26]  (AR v2)
Track  2  accurately ripped (confidence 3)  [AD7C979D]  (AR v2)
Track  3  accurately ripped (confidence 3)  [D5186DAA]  (AR v2)
Track  4  accurately ripped (confidence 3)  [AC4A097D]  (AR v2)
Track  5  accurately ripped (confidence 3)  [D4C380E4]  (AR v2)
Track  6  accurately ripped (confidence 3)  [7336B8D4]  (AR v2)
Track  7  accurately ripped (confidence 3)  [1C563859]  (AR v2)
Track  8  accurately ripped (confidence 3)  [575C40C3]  (AR v2)
Track  9  accurately ripped (confidence 3)  [AD0212EF]  (AR v2)
Track 10  accurately ripped (confidence 3)  [FF633436]  (AR v2)
Track 11  accurately ripped (confidence 3)  [E26E30D6]  (AR v2)
Track 12  accurately ripped (confidence 3)  [A262E921]  (AR v2)
Track 13  accurately ripped (confidence 3)  [CADF3CA9]  (AR v2)
Track 14  accurately ripped (confidence 3)  [2B5D0FA3]  (AR v2)
Track 15  accurately ripped (confidence 3)  [F2D495B5]  (AR v2)
Track 16  accurately ripped (confidence 3)  [CED9864F]  (AR v2)
Track 17  accurately ripped (confidence 3)  [9531EFD7]  (AR v2)
Track 18  accurately ripped (confidence 3)  [FA37F1EA]  (AR v2)
Track 19  accurately ripped (confidence 3)  [BB56DD42]  (AR v2)
Track 20  accurately ripped (confidence 3)  [4CC2924A]  (AR v2)
Track 21  accurately ripped (confidence 3)  [00A4A083]  (AR v2)
 
All tracks accurately ripped

End of status report

==== Log checksum 0A545B4CFA84DD025D02E84CA7BB9027787B06DE15F1EC70A012267B2A5F9A69 ====



Create a new paste based on this one


Comments: