[ create a new paste ] login | about

Link: http://codepad.org/FdeUsNCu    [ raw code | fork ]

Plain Text, pasted on May 11:
[CUETools log; Date: 5/11/2016 11:34:39 PM; Version: 2.1.5]
[CTDB TOCID: x57Y9Ix1A1rC3_nFvIkSZp38uDE-] found.
Track | CTDB Status
  1   | (10/11) Accurately ripped
  2   | (10/11) Accurately ripped
  3   | (11/11) Accurately ripped
  4   | (11/11) Accurately ripped
  5   | (11/11) Accurately ripped
  6   | (11/11) Accurately ripped
  7   | (11/11) Accurately ripped
  8   | (11/11) Accurately ripped
  9   | (11/11) Accurately ripped
 10   | (11/11) Accurately ripped
 11   | (10/11) Accurately ripped
 12   | (11/11) Accurately ripped
 13   | (10/11) Accurately ripped
 14   | (11/11) Accurately ripped
 15   | (10/11) Accurately ripped
 16   | (10/11) Accurately ripped
 17   | (10/11) Accurately ripped
 18   | (10/11) Accurately ripped
[AccurateRip ID: 003331f7-02ac1a18-05124e12] found.
Track   [  CRC   |   V2   ] Status
 01     [95fbb1a0|ea835b82] (12+06/23) Accurately ripped
 02     [027b9896|b395d750] (12+06/23) Accurately ripped
 03     [7f95caeb|938b05ae] (12+07/24) Accurately ripped
 04     [d222f8d1|97aa8915] (12+07/24) Accurately ripped
 05     [0c1f5a5c|661c2abc] (12+07/24) Accurately ripped
 06     [7697d676|3fc32196] (12+07/24) Accurately ripped
 07     [75b7ea55|70e4611c] (12+07/24) Accurately ripped
 08     [a7ebbbd0|e7241155] (12+07/24) Accurately ripped
 09     [30c020a9|8156339e] (12+07/24) Accurately ripped
 10     [6c86db42|23c1b6fa] (12+07/24) Accurately ripped
 11     [1166bbc0|9034c5f9] (12+06/23) Accurately ripped
 12     [40b562ae|85dcdd6d] (12+07/24) Accurately ripped
 13     [d6e4f039|7ea5c6b4] (11+06/22) Accurately ripped
 14     [32f155a2|0ce880b2] (12+07/24) Accurately ripped
 15     [6214a3b1|3e908848] (11+06/22) Accurately ripped
 16     [eeeb1ab2|e8d0ee00] (12+05/22) Accurately ripped
 17     [11889a66|f252f6b2] (11+06/22) Accurately ripped
 18     [0f492253|5516dd2e] (11+06/21) Accurately ripped
Offsetted by -664:
 01     [1fa6be28] (00/23) No match (V2 was not tested)
 02     [b78d9116] (00/23) No match (V2 was not tested)
 03     [5cf94773] (00/24) No match (V2 was not tested)
 04     [f0b4cca1] (00/24) No match (V2 was not tested)
 05     [57a75f6c] (00/24) No match (V2 was not tested)
 06     [ea13693e] (00/24) No match (V2 was not tested)
 07     [66de5c25] (00/24) No match (V2 was not tested)
 08     [472a1b80] (00/24) No match (V2 was not tested)
 09     [f4ad8709] (00/24) No match (V2 was not tested)
 10     [f619732a] (00/24) No match (V2 was not tested)
 11     [a0a44eb0] (00/23) No match (V2 was not tested)
 12     [6cc206a6] (00/24) No match (V2 was not tested)
 13     [207f02e1] (00/22) No match (V2 was not tested)
 14     [6e406b3a] (00/24) No match (V2 was not tested)
 15     [540ff756] (00/22) No match (V2 was not tested)
 16     [42519165] (00/22) No match (V2 was not tested)
 17     [289e61d6] (00/22) No match (V2 was not tested)
 18     [34bad596] (00/21) No match (V2 was not tested)

Track Peak [ CRC32  ] [W/O NULL] [  LOG   ]
 --   99.9 [B2FAB2DE] [2B179A35]   CRC32   
 01   87.1 [0A92B8A3] [BE6E199F]           
 02   86.7 [D5A63108] [5BEAE671]           
 03   87.2 [BBA52B13] [44FD9C3F]           
 04   86.5 [9E9D2D93] [637E3950]           
 05   87.0 [B332F677] [DB790A94]           
 06   86.4 [7F19439A] [CBD3C24F]           
 07   83.5 [C0E1C51C] [193D5A08]           
 08   90.7 [D0F5FA35] [2188D36C]           
 09   87.7 [CE5D7394] [4BCA33E7]           
 10   94.8 [A1C9CCBF] [633605D5]           
 11   99.7 [A3417CF0] [933867A8]           
 12   96.8 [64CEE48A] [900A8E6C]           
 13   96.1 [F2B9533E] [88E02EC3]           
 14   96.8 [1E6DB318] [057959F9]           
 15   99.9 [0CCA024C] [0E3B6132]           
 16   96.7 [9F574BEC] [B71FD48E]           
 17   99.0 [A1E303B8] [847892E4]           
 18   99.0 [5C52687A] [E15345AE]           



Create a new paste based on this one


Comments: