[ create a new paste ] login | about

Link: http://codepad.org/FfVlZu5K    [ raw code | fork ]

Plain Text, pasted on Mar 22:
[CUETools log; Date: 3/21/2017 9:22:45 AM; Version: 2.1.5]
[CTDB TOCID: c4yP4dkXYAdZ8aVmKBZbXQQ4Ti0-] found.
Track | CTDB Status
  1   | (1/1) Accurately ripped
  2   | (1/1) Accurately ripped
  3   | (1/1) Accurately ripped
  4   | (1/1) Accurately ripped
  5   | (1/1) Accurately ripped
  6   | (1/1) Accurately ripped
  7   | (1/1) Accurately ripped
  8   | (1/1) Accurately ripped
  9   | (1/1) Accurately ripped
 10   | (1/1) Accurately ripped
 11   | (1/1) Accurately ripped
 12   | (1/1) Accurately ripped
[AccurateRip ID: 00196a7f-00ec59e7-940cd60c] found.
Track   [  CRC   |   V2   ] Status
 01     [87eabdcd|96947e8f] (0+1/1) Accurately ripped
 02     [89e36d3b|0f69ca59] (0+1/1) Accurately ripped
 03     [9bfafae4|0f742f52] (0+1/1) Accurately ripped
 04     [73b854ee|95a90461] (0+1/1) Accurately ripped
 05     [3a3145f5|ceaf16e5] (0+1/1) Accurately ripped
 06     [27a36df7|178cc282] (0+1/1) Accurately ripped
 07     [aa9c459b|b58ea386] (0+1/1) Accurately ripped
 08     [b01fbdf5|b25ca5e8] (0+1/1) Accurately ripped
 09     [6faca0f7|1689224a] (0+1/1) Accurately ripped
 10     [2a1fe66f|d8d37d54] (0+1/1) Accurately ripped
 11     [54c39b2a|58fedb24] (0+1/1) Accurately ripped
 12     [fc396b0e|05e8f3da] (0+1/1) Accurately ripped

Track Peak [ CRC32  ] [W/O NULL] [  LOG   ]
 --  100.0 [988167F7] [813F7223]           
 01   87.0 [1F9AB6A0] [E17E85D4]   CRC32   
 02   98.8 [8FA117FF] [890AC6F7]   CRC32   
 03   98.8 [9B26D42A] [A0A6DA92]   CRC32   
 04   99.0 [0D659322] [73B6FC70]   CRC32   
 05   98.8 [7B4B10E6] [1443E5C5]   CRC32   
 06   98.8 [6AFD92FE] [608E7982]   CRC32   
 07   89.0 [63DFADBF] [C64DA6B2]   CRC32   
 08  100.0 [0A9DAA49] [F1766148]   CRC32   
 09   99.2 [7A7DA6A2] [F3A93255]   CRC32   
 10   97.1 [B7A8889C] [79931977]   CRC32   
 11   98.8 [9757C6F9] [EF31D961]   CRC32   
 12  100.0 [C126306F] [BB1D9483]   CRC32   



Create a new paste based on this one


Comments: