[ create a new paste ] login | about

Link: http://codepad.org/Fg8jvDmp    [ raw code | fork ]

Plain Text, pasted on Apr 4:
Exact Audio Copy V1.1 from 23. June 2015

EAC extraction logfile from 1. April 2016, 15:57

Phil Collins / Hello, I Must Be Going! 2 Deluxe

Used drive  : PLEXTOR BD-R  PX-B950SA   Adapter: 1  ID: 1

Read mode               : Secure
Utilize accurate stream : Yes
Defeat audio cache      : Yes
Make use of C2 pointers : No

Read offset correction                      : 6
Overread into Lead-In and Lead-Out          : No
Fill up missing offset samples with silence : Yes
Delete leading and trailing silent blocks   : No
Null samples used in CRC calculations       : Yes
Used interface                              : Native Win32 interface for Win NT & 2000

Used output format : Internal WAV Routines
Sample format      : 44.100 Hz; 16 Bit; Stereo


TOC of the extracted CD

     Track |   Start  |  Length  | Start sector | End sector 
    ---------------------------------------------------------
        1  |  0:00.00 |  6:30.59 |         0    |    29308   
        2  |  6:30.59 |  5:29.37 |     29309    |    54020   
        3  | 12:00.21 |  5:41.63 |     54021    |    79658   
        4  | 17:42.09 |  3:04.23 |     79659    |    93481   
        5  | 20:46.32 |  4:23.49 |     93482    |   113255   
        6  | 25:10.06 |  7:37.16 |    113256    |   147546   
        7  | 32:47.22 |  3:18.09 |    147547    |   162405   
        8  | 36:05.31 |  5:03.62 |    162406    |   185192   
        9  | 41:09.18 |  2:22.05 |    185193    |   195847   
       10  | 43:31.23 |  4:30.08 |    195848    |   216105   
       11  | 48:01.31 |  4:42.59 |    216106    |   237314   


Range status and errors

Selected range

     Filename C:\Phil Collins\1982 Hello, I Must Be Going! (2CD Deluxe Edition Atlantic Records 2016)\CD2\Phil Collins - Hello, I Must Be Going! 2 Deluxe.wav

     Peak level 98.9 %
     Extraction speed 7.2 X
     Range quality 100.0 %
     Test CRC 2AD212EA
     Copy CRC 2AD212EA
     Copy OK

No errors occurred

 
AccurateRip summary
 
Track  1  not present in database
Track  2  not present in database
Track  3  not present in database
Track  4  not present in database
Track  5  not present in database
Track  6  not present in database
Track  7  not present in database
Track  8  not present in database
Track  9  not present in database
Track 10  not present in database
Track 11  not present in database
 
None of the tracks are present in the AccurateRip database

End of status report

---- CUETools DB Plugin V2.1.6

[CTDB TOCID: ATQJinXOn94OFO3ndc8oGHFcZts-] found
Submit result: ATQJinXOn94OFO3ndc8oGHFcZts- has been confirmed
Track | CTDB Status
  1   | (52/52) Accurately ripped
  2   | (52/52) Accurately ripped
  3   | (52/52) Accurately ripped
  4   | (52/52) Accurately ripped
  5   | (52/52) Accurately ripped
  6   | (52/52) Accurately ripped
  7   | (52/52) Accurately ripped
  8   | (52/52) Accurately ripped
  9   | (50/52) Accurately ripped
 10   | (50/52) Accurately ripped
 11   | (46/52) Accurately ripped


==== Log checksum 59A65D9C8A39B2F15524127FF38DA9F2645A235D279BBD8EBF0AD64389BD1401 ====



Create a new paste based on this one


Comments: