[ create a new paste ] login | about

Link: http://codepad.org/FiAcglj1    [ raw code | fork ]

Plain Text, pasted on Jul 11:
[CUETools log; Date: 7/11/2018 7:29:52 AM; Version: 2.1.5]
[CTDB TOCID: 2wGsSu5iY7cHkdH5k7Mpxe1OZxM-] found.
Track | CTDB Status
  1   | (170/170) Accurately ripped
  2   | (170/170) Accurately ripped
  3   | (168/170) Accurately ripped
  4   | (170/170) Accurately ripped
  5   | (170/170) Accurately ripped
  6   | (170/170) Accurately ripped
  7   | (170/170) Accurately ripped
  8   | (169/170) Accurately ripped
  9   | (170/170) Accurately ripped
 10   | (170/170) Accurately ripped
 11   | (168/170) Accurately ripped
[AccurateRip ID: 002461c5-012f4533-a512110b] found.
Track   [  CRC   |   V2   ] Status
 01     [84aa29bb|29ac13a3] (000+007/159) Accurately ripped
 02     [b129c156|88653116] (000+007/159) Accurately ripped
 03     [01e35dc4|6970228d] (000+007/160) Accurately ripped
 04     [88830dde|0b8e41dc] (000+007/161) Accurately ripped
 05     [f7b01b17|686b11d8] (000+007/160) Accurately ripped
 06     [c3b805e6|3a16b384] (000+007/160) Accurately ripped
 07     [44d9ef91|92192774] (000+007/160) Accurately ripped
 08     [ebd3a574|33a2ec4e] (000+007/160) Accurately ripped
 09     [dd12adfc|2d9b7bfb] (000+007/160) Accurately ripped
 10     [37222528|e4feb3f3] (000+007/159) Accurately ripped
 11     [0aa95aeb|88961bf5] (000+007/157) Accurately ripped
Offsetted by -658:
 01     [232aa273] (004/159) Accurately ripped
 02     [674f634d] (003/159) Accurately ripped
 03     [da31689a] (004/160) Accurately ripped
 04     [ef1d7ede] (004/161) Accurately ripped
 05     [ad3c6ec6] (004/160) Accurately ripped
 06     [e7852aa2] (004/160) Accurately ripped
 07     [99e42efa] (003/160) Accurately ripped
 08     [7a284608] (003/160) Accurately ripped
 09     [4c0b0932] (003/160) Accurately ripped
 10     [19735783] (003/159) Accurately ripped
 11     [fe781f77] (003/157) Accurately ripped
Offsetted by 6:
 01     [8bc048dd] (044/159) Accurately ripped
 02     [1662b2f7] (043/159) Accurately ripped
 03     [671e3018] (044/160) Accurately ripped
 04     [7d598fbf] (044/161) Accurately ripped
 05     [949a5f03] (044/160) Accurately ripped
 06     [2056fd3b] (044/160) Accurately ripped
 07     [804a64c5] (044/160) Accurately ripped
 08     [dc7ca17b] (044/160) Accurately ripped
 09     [d1aa5859] (044/160) Accurately ripped
 10     [06c311e0] (044/159) Accurately ripped
 11     [3f47f215] (043/157) Accurately ripped
Offsetted by 9:
 01     [d256d2ae] (025/159) Accurately ripped
 02     [f84dc9f2] (025/159) Accurately ripped
 03     [27dc3130] (025/160) Accurately ripped
 04     [42c565db] (025/161) Accurately ripped
 05     [a5f5c74b] (025/160) Accurately ripped
 06     [4e4ef831] (025/160) Accurately ripped
 07     [7d669254] (025/160) Accurately ripped
 08     [11d06d54] (025/160) Accurately ripped
 09     [83502a4a] (025/160) Accurately ripped
 10     [a0f5e6b1] (025/159) Accurately ripped
 11     [5a393d82] (025/157) Accurately ripped
Offsetted by 12:
 01     [759e9c5d] (000/159) No match (V2 was not tested)
 02     [6f4c8c00] (000/159) No match (V2 was not tested)
 03     [09215561] (000/160) No match (V2 was not tested)
 04     [0ee69a28] (000/161) No match (V2 was not tested)
 05     [1d024fa5] (000/160) No match (V2 was not tested)
 06     [7cbef2f1] (000/160) No match (V2 was not tested)
 07     [27098194] (000/160) No match (V2 was not tested)
 08     [b8663ffd] (000/160) No match (V2 was not tested)
 09     [27fa9862] (000/160) No match (V2 was not tested)
 10     [447637f0] (000/159) No match (V2 was not tested)
 11     [75ba890d] (000/157) No match (V2 was not tested)

Track Peak [ CRC32  ] [W/O NULL] [  LOG   ]
 --  100.0 [2F1E0A79] [E2562425]   CRC32   
 01  100.0 [EA6B21DA] [388338AB]           
 02  100.0 [56947584] [D6B60334]           
 03  100.0 [ACE59E36] [CDA7A24F]           
 04   94.9 [FD4F5326] [0527E543]           
 05  100.0 [FC32B864] [27F9ACCE]           
 06  100.0 [B6DF36CB] [670DE46B]           
 07  100.0 [125F8A5D] [224F74D8]           
 08  100.0 [4B772754] [FAC994DC]           
 09  100.0 [76FBA471] [0BC74D3C]           
 10   89.7 [DF352DE2] [7AD091DB]           
 11  100.0 [23BA850D] [066C6AB1]           



Create a new paste based on this one


Comments: