[ create a new paste ] login | about

Link: http://codepad.org/Fr3UqfuW    [ raw code | fork ]

Plain Text, pasted on Jun 23:
foobar2000 1.5 / Dynamic Range Meter 1.1.1
log date: 2020-06-23 06:52:01

--------------------------------------------------------------------------------
Analyzed: Various Artists / Female Vocal Anthology
--------------------------------------------------------------------------------

DR         Peak         RMS     Duration Track
--------------------------------------------------------------------------------
DR9       -9.58 dB   -22.85 dB      3:02 01-Cry Me A River
DR11      -7.37 dB   -22.38 dB      3:29 02-Black Coffee
DR13      -7.98 dB   -23.52 dB      4:39 03-Poetry Man
DR12      -5.55 dB   -21.67 dB      2:29 04-Son Of A Preacher Man
DR14      -6.30 dB   -24.54 dB      5:23 05-Just A Little Lovin'
DR13      -7.75 dB   -23.73 dB      4:37 06-Show Biz Kids
DR12      -9.19 dB   -23.56 dB      2:44 07-Crazy
DR12      -7.38 dB   -24.69 dB      3:41 08-Tennessee Waltz
DR17      -6.73 dB   -27.61 dB      3:11 09-Breaking Silence
DR14      -8.86 dB   -26.54 dB      4:01 10-Hey There
DR12      -5.94 dB   -21.55 dB      5:25 11-What a Shame
DR14      -5.75 dB   -26.52 dB      3:55 12-Plain Gold Ring
--------------------------------------------------------------------------------

Number of tracks:  12
Official DR value: DR13

Samplerate:        2822400 Hz / PCM Samplerate: 176400 Hz
Channels:          2
Bits per sample:   1
Bitrate:           5645 kbps
Codec:             DSD64
================================================================================

foobar2000 1.5 / Dynamic Range Meter 1.1.1
log date: 2020-06-23 06:53:05

--------------------------------------------------------------------------------
Analyzed: Various Artists / Female Vocal Anthology
--------------------------------------------------------------------------------

DR         Peak         RMS     Duration Track
--------------------------------------------------------------------------------
DR12      -8.86 dB   -23.92 dB      3:42 01-The Moon Is Made Of Gold
DR13      -7.49 dB   -23.51 dB      2:34 02-Blue Moon
DR13      -6.89 dB   -23.82 dB      4:53 03-Blame It on the Moon
DR13      -7.64 dB   -24.20 dB      3:46 04-Diamonds and Rust
DR13      -7.81 dB   -23.08 dB      3:36 05-Somebody Who Loves You
DR13      -8.46 dB   -26.21 dB      4:04 06-Send In the Clowns
DR14      -8.44 dB   -25.21 dB      6:51 07-Ballad Of The Runaway Horse
DR14      -9.41 dB   -28.62 dB      6:42 08-A Case of You
DR13      -7.70 dB   -25.35 dB      4:10 09-The Look of Love
DR15      -4.95 dB   -23.55 dB      5:10 10-Brothers In Arms
--------------------------------------------------------------------------------

Number of tracks:  10
Official DR value: DR13

Samplerate:        2822400 Hz / PCM Samplerate: 176400 Hz
Channels:          2
Bits per sample:   1
Bitrate:           5645 kbps
Codec:             DSD64
================================================================================




Create a new paste based on this one


Comments: