[ create a new paste ] login | about

Link: http://codepad.org/FxQJPIml    [ raw code | fork ]

Plain Text, pasted on Jul 20:
Exact Audio Copy V1.3 from 2. September 2016

EAC extraction logfile from 15. July 2018, 7:14

Guns N' Roses / Appetite For Destruction CD2

Used drive  : PLEXTOR BD-R  PX-B950SA   Adapter: 1  ID: 1

Read mode               : Secure
Utilize accurate stream : Yes
Defeat audio cache      : Yes
Make use of C2 pointers : No

Read offset correction                      : 6
Overread into Lead-In and Lead-Out          : No
Fill up missing offset samples with silence : Yes
Delete leading and trailing silent blocks   : No
Null samples used in CRC calculations       : Yes
Used interface                              : Native Win32 interface for Win NT & 2000

Used output format : Internal WAV Routines
Sample format      : 44.100 Hz; 16 Bit; Stereo


TOC of the extracted CD

     Track |   Start  |  Length  | Start sector | End sector 
    ---------------------------------------------------------
        1  |  0:00.00 |  3:21.46 |         0    |    15120   
        2  |  3:21.46 |  3:02.44 |     15121    |    28814   
        3  |  6:24.15 |  3:34.18 |     28815    |    44882   
        4  |  9:58.33 |  3:41.13 |     44883    |    61470   
        5  | 13:39.46 |  3:03.51 |     61471    |    75246   
        6  | 16:43.22 |  4:25.52 |     75247    |    95173   
        7  | 21:08.74 |  5:54.66 |     95174    |   121789   
        8  | 27:03.65 |  3:12.50 |    121790    |   136239   
        9  | 30:16.40 |  4:10.34 |    136240    |   155023   
       10  | 34:26.74 |  3:54.26 |    155024    |   172599   
       11  | 38:21.25 |  4:59.32 |    172600    |   195056   
       12  | 43:20.57 |  4:06.19 |    195057    |   213525   


Range status and errors

Selected range

     Filename C:\Guns N' Roses\1987 Appetite For Destruction (5-Disc Box Set Universal Music 2018)\CD2\Guns N' Roses - Appetite For Destruction CD2.wav

     Peak level 100.0 %
     Extraction speed 7.0 X
     Range quality 100.0 %
     Test CRC 1CB5F68A
     Copy CRC 1CB5F68A
     Copy OK

No errors occurred

 
AccurateRip summary
 
Track  1  accurately ripped (confidence 1)  [088A288B]  (AR v2)
Track  2  accurately ripped (confidence 1)  [44AC64C9]  (AR v2)
Track  3  accurately ripped (confidence 1)  [66CB0A69]  (AR v2)
Track  4  accurately ripped (confidence 1)  [5451CECF]  (AR v2)
Track  5  accurately ripped (confidence 1)  [5975F8AF]  (AR v2)
Track  6  accurately ripped (confidence 1)  [8E4C9062]  (AR v2)
Track  7  accurately ripped (confidence 1)  [E27184B6]  (AR v2)
Track  8  accurately ripped (confidence 1)  [5F7A6547]  (AR v2)
Track  9  accurately ripped (confidence 1)  [435A3701]  (AR v2)
Track 10  accurately ripped (confidence 1)  [328D67C4]  (AR v2)
Track 11  accurately ripped (confidence 1)  [DF71BC74]  (AR v2)
Track 12  accurately ripped (confidence 1)  [99A52022]  (AR v2)
 
All tracks accurately ripped

End of status report

---- CUETools DB Plugin V2.1.6

[CTDB TOCID: lpyigolVWuUebZHTACSIdFD_O0I-] found
Submit result: lpyigolVWuUebZHTACSIdFD_O0I- has been confirmed
Track | CTDB Status
  1   | (41/41) Accurately ripped
  2   | (41/41) Accurately ripped
  3   | (41/41) Accurately ripped
  4   | (41/41) Accurately ripped
  5   | (41/41) Accurately ripped
  6   | (41/41) Accurately ripped
  7   | (41/41) Accurately ripped
  8   | (41/41) Accurately ripped
  9   | (41/41) Accurately ripped
 10   | (41/41) Accurately ripped
 11   | (41/41) Accurately ripped
 12   | (41/41) Accurately ripped


==== Log checksum 4410E781754AA0EF16CD8A88F0EAED5EEF5A9701B0737280A4893C9C34D063F5 ====



Create a new paste based on this one


Comments: